<?xml version="1.0" standalone="no"?>
<!DOCTYPE svg PUBLIC "-//W3C//DTD SVG 1.1//EN" "http://www.w3.org/Graphics/SVG/1.1/DTD/svg11.dtd" >
<svg xmlns="http://www.w3.org/2000/svg" xmlns:xlink="http://www.w3.org/1999/xlink" version="1.1">
<metadata></metadata>
<defs>
<font id="lydian_fsregular" horiz-adv-x="1046" >
<font-face units-per-em="2048" ascent="1577" descent="-471" />
<missing-glyph horiz-adv-x="512" />
<glyph unicode="&#xfb01;" horiz-adv-x="980" d="M51 805l51 84h66q3 170 55 258q43 71 101 121q151 125 225 125q23 0 47 -7l-84 -153q-52 12 -92 12q-44 0 -55 -16.5t-11 -85.5v-88q0 -88 2 -166h162l-45 -84h-117q0 -24 -1 -116.5t-1 -158.5q0 -287 6 -530l-196 -10q4 204 4 680v135h-117zM600 1147l137 156l137 -66 l-137 -156zM649 -10q2 164 2 450q0 83 -1 232.5t-1 216.5l195 8q-4 -150 -4 -448q0 -299 4 -449z" />
<glyph unicode="&#xfb02;" horiz-adv-x="980" d="M51 805l51 84h66q3 170 55 258q43 71 101 121q151 125 225 125q23 0 47 -7l-84 -153q-52 12 -92 12q-44 0 -55 -16.5t-11 -85.5v-88q0 -88 2 -166h162l-45 -84h-117q0 -24 -1 -116.5t-1 -158.5q0 -287 6 -530l-196 -10q4 204 4 680v135h-117zM649 -10q2 190 2 686 q0 494 -2 682l195 8q-4 -201 -4 -684q0 -481 4 -682z" />
<glyph horiz-adv-x="0" />
<glyph horiz-adv-x="682" />
<glyph unicode=" "  horiz-adv-x="512" />
<glyph unicode="&#x09;" horiz-adv-x="512" />
<glyph unicode="&#xa0;" horiz-adv-x="512" />
<glyph unicode="!" horiz-adv-x="567" d="M150 96q74 62 133 133q62 -71 133 -133q-69 -64 -133 -133q-49 56 -133 133zM182 1284l209 35q-44 -504 -65 -1004l-88 -18q-12 742 -56 987z" />
<glyph unicode="&#x22;" horiz-adv-x="579" d="M84 829v523h133v-523h-133zM362 829v523h132v-523h-132z" />
<glyph unicode="#" horiz-adv-x="1482" d="M84 422l49 137h291l88 250h-311l49 137h311l154 428h155l-153 -428h241l156 428h154l-152 -428h285l-49 -137h-285l-86 -250h301l-47 -137h-303l-152 -426h-157l153 426h-244l-151 -426h-158l152 426h-291zM582 559h243l88 250h-245z" />
<glyph unicode="$" d="M195 160l120 164q86 -86 177 -103v361q-153 59 -224 130t-71 171q0 66 22.5 120t69.5 115q140 180 203 189l-7 92l86 14l-4 -98h15q174 0 280 -133l-133 -148q-64 83 -162 101v-357q88 -34 144 -63.5t97 -66.5t59 -81t18 -102q0 -63 -53.5 -162t-159.5 -215 q-39 -42 -105 -55q0 -58 11 -133l-97 -21q11 112 11 146h-9q-168 0 -288 135zM326 1008q0 -71 40 -119.5t126 -85.5v340h-15q-82 0 -139 -51q-12 -46 -12 -84zM567 213h15q109 0 166 66v24q0 92 -43 150.5t-138 95.5v-336z" />
<glyph unicode="%" horiz-adv-x="1531" d="M68 911q0 183 88 326l178 147q24 9 49 9q126 0 203.5 -91t77.5 -241q0 -119 -37 -224.5t-103 -177.5l-131 -106q-17 -10 -51 -10q-122 0 -198 99.5t-76 268.5zM188 987q0 -147 68.5 -237.5t169.5 -90.5q6 0 47 9q70 124 70 293q0 153 -61 238t-160 85q-31 0 -64 -10 q-70 -99 -70 -287zM319 -37l807 1430h72l-807 -1430h-72zM870 334q0 180 88 323l179 152q16 6 49 6q126 0 203 -91t77 -241q0 -118 -37 -222t-102 -177l-129 -107q-28 -14 -53 -14q-121 0 -198 101.5t-77 269.5zM991 412q0 -147 68.5 -237.5t169.5 -90.5q20 0 47 6 q70 128 70 293q0 153 -61.5 239.5t-160.5 86.5q-30 0 -63 -13q-70 -95 -70 -284z" />
<glyph unicode="&#x26;" horiz-adv-x="1005" d="M94 338q0 127 79 236t233 192q-230 73 -230 248q0 15 2 29.5t7.5 31l9 27t14 30t14 26.5t18 31t17.5 30q42 70 144.5 122t205.5 52q119 0 213 -76l-135 -170q-97 94 -260 94q-57 0 -78.5 -15.5t-21.5 -58.5q0 -115 121.5 -183t357.5 -83l-113 -176q-75 6 -110 10 q-168 -20 -248 -80.5t-80 -169.5q0 -151 107 -248.5t276 -97.5q67 0 90 13.5t23 52.5q0 91 -75.5 151t-207.5 60q-45 0 -68 -2l95 141h467l-84 -139h-62q37 -34 37 -115q0 -57 -34 -123.5t-97 -124.5q-46 -41 -111.5 -65.5t-138.5 -24.5q-152 0 -264.5 110.5t-112.5 264.5z " />
<glyph unicode="'" horiz-adv-x="299" d="M84 829v523h133v-523h-133z" />
<glyph unicode="(" horiz-adv-x="514" d="M117 440q0 525 270 959l84 -41q-203 -441 -203 -903q0 -484 201 -895l-86 -43q-266 425 -266 923z" />
<glyph unicode=")" horiz-adv-x="514" d="M45 -442q201 439 201 903q0 485 -199 895l82 43q266 -423 266 -918q0 -538 -270 -964z" />
<glyph unicode="*" horiz-adv-x="964" d="M211 997l201 107l-199 104l43 76l190 -119l-8 228h88l-10 -228l195 121l43 -76l-201 -106l199 -105l-43 -77l-191 120l8 -227h-88l8 227l-192 -122z" />
<glyph unicode="+" horiz-adv-x="1607" d="M240 510v131h497v508h133v-508h498v-131h-498v-510h-133v510h-497z" />
<glyph unicode="," horiz-adv-x="522" d="M131 127l129 149q119 -82 119 -182q0 -60 -50 -130.5t-155 -172.5l-24 25q86 95 86 157q0 38 -25.5 74.5t-79.5 79.5z" />
<glyph unicode="-" horiz-adv-x="473" d="M41 385l53 135h340l-53 -135h-340z" />
<glyph unicode="." horiz-adv-x="522" d="M129 96q55 46 131 133q50 -58 133 -133q-90 -86 -133 -133q-74 81 -131 133z" />
<glyph unicode="/" horiz-adv-x="706" d="M14 -180l607 1573h71l-608 -1573h-70z" />
<glyph unicode="0" d="M49 578q0 327 166 565q129 138 254 237q44 13 82 13q187 0 315.5 -160.5t128.5 -417.5q0 -427 -186 -655q-79 -102 -215 -183q-63 -14 -102 -14q-203 0 -323 163.5t-120 451.5zM215 715q0 -276 111.5 -425t312.5 -149q65 0 102 25q90 160 90 477q0 262 -116 416.5 t-291 154.5q-37 0 -80 -16q-129 -194 -129 -483z" />
<glyph unicode="1" d="M414 0q14 376 14 993q0 147 -6 346l209 54q-13 -515 -13 -834q0 -303 13 -559h-217z" />
<glyph unicode="2" d="M76 0l51 160q275 84 322 119q43 30 104 129q115 190 115 380q0 205 -100 320t-271 115q-126 0 -203 -60l-10 13l147 165q16 16 73.5 34t133.5 18q181 0 295.5 -126.5t114.5 -336.5q0 -207 -111.5 -405.5t-324.5 -364.5h454l-57 -160h-733z" />
<glyph unicode="3" d="M152 121l161 149q131 -155 287 -155q47 0 70 16q37 50 37 119q0 157 -109 266t-274 109q-43 0 -107 -17l-10 10l164 168q41 13 82 13q65 0 120 -19q62 92 62 201q0 129 -63.5 197.5t-182.5 68.5q-90 0 -182 -53l-8 16l170 156q89 27 155 27q142 0 231 -84.5t89 -218.5 q0 -83 -54.5 -170t-158.5 -162q116 -49 183 -150.5t67 -224.5q0 -117 -79.5 -208.5t-264.5 -205.5q-23 -6 -70 -6q-101 0 -182.5 41t-132.5 117z" />
<glyph unicode="4" d="M70 449q373 604 526 899l186 45q-4 -164 -4 -504q0 -7 1 -109t1 -198h160l-43 -133h-117q0 -241 8 -449h-204q12 316 12 449h-526zM217 582h379v649z" />
<glyph unicode="5" d="M147 41l132 184q102 -73 233 -73q113 0 167 54t54 169q0 139 -95 231t-241 92q-98 0 -200 -45v705h606l-31 -162h-489v-381q128 64 237 64q163 0 266 -98.5t103 -258.5q0 -69 -19 -129.5t-62 -121t-90 -110t-126 -122.5q-79 -76 -225 -76q-124 0 -220 78z" />
<glyph unicode="6" d="M92 518q0 197 39.5 354t104.5 248q22 31 94 100.5t184 157.5q46 15 90 15q183 0 324 -160l-121 -180q-88 72 -178 109.5t-160 37.5q-49 0 -96 -18q-101 -170 -113 -533q119 119 215 201q53 33 137 33q151 0 240.5 -101.5t89.5 -271.5q0 -95 -25.5 -171.5t-66.5 -121.5 q-107 -117 -301 -242q-49 -12 -98 -12q-162 0 -260.5 146.5t-98.5 408.5zM266 596q9 -221 93.5 -338t228.5 -117q87 0 143 35q53 82 53 205q0 144 -80.5 229.5t-214.5 85.5q-123 0 -223 -100z" />
<glyph unicode="7" d="M160 1196l45 162h710l-423 -1385l-117 -10l381 1233h-596z" />
<glyph unicode="8" d="M152 285q0 93 49.5 163.5t165.5 165.5q-199 102 -199 334q0 78 34 147.5t95.5 131.5t163.5 137q54 29 131 29q137 0 217 -79t80 -216q0 -100 -59.5 -184.5t-186.5 -178.5q131 -52 194.5 -121.5t63.5 -169.5q0 -110 -63 -215q-70 -90 -256 -252q-46 -14 -99 -14 q-150 0 -240.5 89.5t-90.5 232.5zM315 1087q0 -103 69.5 -183t211.5 -144q104 98 104 221q0 115 -61 177.5t-172 62.5q-88 0 -120 -27t-32 -107zM322 395q0 -109 79.5 -177t210.5 -68q76 0 97.5 25.5t21.5 113.5q0 102 -73 169t-242 134q-94 -82 -94 -197z" />
<glyph unicode="9" d="M102 829q0 86 19 162.5t41 112.5q33 52 288 251q20 17 31 25q33 13 80 13q188 0 288.5 -145.5t100.5 -424.5q0 -379 -123 -575q-81 -100 -278 -264q-47 -21 -100 -21q-177 0 -316 154l117 184q188 -141 332 -141q42 0 73.5 9.5t40.5 20.5q35 50 61 188t29 339 q-76 -90 -125 -137.5t-105.5 -77t-117.5 -29.5q-151 0 -243.5 97.5t-92.5 258.5zM256 989q0 -153 80 -240t213 -87q73 0 135.5 29.5t97.5 80.5q-52 445 -333 445q-93 0 -150 -43q-43 -78 -43 -185z" />
<glyph unicode=":" horiz-adv-x="522" d="M129 96q55 46 131 133q50 -58 133 -133q-90 -86 -133 -133q-74 81 -131 133zM129 756q55 46 131 133q63 -70 133 -133q-79 -72 -133 -131q-76 83 -131 131z" />
<glyph unicode=";" horiz-adv-x="522" d="M129 756q55 46 131 133q63 -70 133 -133q-79 -72 -133 -131q-76 83 -131 131zM131 127l129 149q119 -82 119 -182q0 -60 -50 -130.5t-155 -172.5l-24 25q86 95 86 157q0 38 -25.5 74.5t-79.5 79.5z" />
<glyph unicode="&#x3c;" horiz-adv-x="1607" d="M250 516v121l1108 455v-144l-912 -373l912 -370v-146z" />
<glyph unicode="=" horiz-adv-x="1607" d="M240 322v131h1128v-131h-1128zM240 696v131h1128v-131h-1128z" />
<glyph unicode="&#x3e;" horiz-adv-x="1607" d="M250 59v146l913 370l-913 373v144l1108 -455v-121z" />
<glyph unicode="?" horiz-adv-x="804" d="M74 1133l151 155q82 39 181 39q147 0 238 -84t91 -213q0 -49 -12 -91.5t-37.5 -84t-51 -73t-67.5 -80.5q-5 -5 -7.5 -8t-7 -8t-7.5 -9q-70 -81 -89 -114q-30 -52 -30 -113q0 -48 14 -80l-180 -72q-6 30 -6 57q0 32 9.5 63.5t33 69.5t44 66.5t61 82t65.5 89.5 q76 105 76 209q0 110 -68.5 180t-167.5 70q-113 0 -215 -74zM240 96q71 62 133 133q68 -78 131 -133q-57 -52 -131 -133q-43 47 -133 133z" />
<glyph unicode="@" horiz-adv-x="1929" d="M100 492q0 155 48.5 294t136.5 246.5t206 186t261.5 120t298.5 41.5q144 0 270 -35t218.5 -96t159 -142.5t99.5 -176.5t33 -195q0 -166 -68 -309t-190.5 -229t-272.5 -86q-102 0 -145 40t-43 125q-101 -163 -285 -163q-143 0 -219 79.5t-76 231.5q0 147 60 267 t162.5 187.5t226.5 67.5q160 0 229 -141l54 108h122l-137 -542q-6 -35 -6 -56q0 -90 94 -90q61 0 125.5 41t115.5 107t83.5 158t32.5 186q0 244 -178 396.5t-472 152.5q-180 0 -333.5 -63t-256.5 -169.5t-160.5 -247.5t-57.5 -297q0 -140 50 -260t142 -208.5t231.5 -138.5 t309.5 -50q328 0 583 180l54 -78q-280 -210 -625 -210q-203 0 -370.5 59.5t-278.5 162.5t-171.5 243.5t-60.5 302.5zM682 420q0 -99 46 -152t130 -53q92 0 163 64t99 170l58 221q-17 84 -66 129t-123 45q-130 0 -218.5 -123t-88.5 -301z" />
<glyph unicode="A" horiz-adv-x="1120" d="M-4 -12q205 543 235 633l203 600l-53 116l205 56q28 -76 168 -445l192 -493q75 -199 178 -435l-215 -43l-172 478h-450l-146 -455zM330 584h360l-194 508z" />
<glyph unicode="B" d="M119 0q14 293 14 676q0 384 -14 682q284 8 366 8q234 0 314 -51q67 -41 103 -104t36 -138q0 -229 -279 -358q150 -38 229 -122.5t79 -205.5q0 -175 -143 -286t-384 -111q-7 0 -48 2t-115.5 4.5t-157.5 3.5zM330 115q141 -43 227 -43q19 0 53 6q146 98 146 270 q0 129 -106.5 206t-295.5 77h-24v-516zM330 651l123 99q73 0 145 -17q150 96 150 256q0 124 -83 193t-237 69q-28 0 -98 -4v-596z" />
<glyph unicode="C" horiz-adv-x="1134" d="M53 608q0 395 328 627q112 80 205 119t196 39q162 0 305 -93l-137 -163q-137 86 -311 86q-90 0 -159 -17.5t-97 -40.5q-76 -61 -121 -175t-45 -255q0 -262 162 -427t422 -165q168 0 293 93l28 -37q-26 -19 -75.5 -55.5t-72 -52t-61.5 -42t-63 -38t-57 -25t-63 -18.5 t-62 -5q-282 0 -448.5 175.5t-166.5 469.5z" />
<glyph unicode="D" horiz-adv-x="1273" d="M109 0q10 261 10 676q0 416 -10 682q31 -2 92 -2q63 0 178 5t168 5q318 0 492.5 -153t174.5 -422q0 -194 -77.5 -356.5t-237.5 -307.5q-71 -63 -171.5 -100t-211.5 -37q-23 0 -100.5 5t-132.5 5h-174zM326 682q0 -201 4 -541q108 -24 209 -24q259 0 376 108.5t117 347.5 q0 323 -170.5 502.5t-478.5 179.5q-33 0 -53 -2q-4 -380 -4 -571z" />
<glyph unicode="E" horiz-adv-x="876" d="M109 0q10 261 10 676q0 416 -10 682q437 0 682 8l-62 -137q-63 8 -223 8h-176q-4 -23 -4 -119v-137v-227h90q200 0 366 6l-65 -131q-95 6 -164 6h-227v-211v-150q0 -114 4 -145q39 -2 106 -2h92q197 0 279 10l-66 -147q-170 10 -454 10h-178z" />
<glyph unicode="F" horiz-adv-x="856" d="M109 -10q10 269 10 686q0 416 -10 682q451 0 702 8l-63 -137q-63 8 -224 8h-190q-4 -149 -8 -483h90q200 0 366 6l-65 -131q-95 6 -164 6h-227q0 -283 14 -635z" />
<glyph unicode="G" horiz-adv-x="1214" d="M57 606q0 209 84.5 365t261.5 276q110 74 190 110t167 36q203 0 370 -127l-131 -158q-150 115 -358 115q-91 0 -160.5 -17.5t-97.5 -40.5q-76 -61 -121 -175t-45 -255q0 -145 55.5 -267t159.5 -208q75 -62 175.5 -97.5t201.5 -35.5q55 0 104 18q9 290 9 383v80h-301 l127 133q119 -4 368 -8v-561q-162 -109 -268 -159t-199 -50q-265 0 -428.5 176t-163.5 467z" />
<glyph unicode="H" horiz-adv-x="1222" d="M109 -10q10 269 10 686q0 416 -10 682l231 8q-14 -315 -14 -612h571q0 245 -14 604l233 8q-12 -314 -12 -684q0 -368 12 -682l-233 -10q14 355 14 635h-571q0 -313 14 -625z" />
<glyph unicode="I" horiz-adv-x="479" d="M119 -10q14 301 14 686q0 384 -14 682l237 8q-12 -313 -12 -684q0 -368 12 -682z" />
<glyph unicode="J" horiz-adv-x="718" d="M0 78l131 139q91 -114 199 -117q29 53 37 126t8 204q0 647 -15 928l238 8q-14 -326 -14 -614q0 -37 1 -158.5t1 -206.5q0 -87 -18 -137.5t-72 -97.5q-106 -91 -191.5 -140t-122.5 -49q-90 0 -182 115z" />
<glyph unicode="K" d="M109 -10q10 269 10 686q0 416 -10 682l231 8q-14 -301 -14 -694l360 483q121 160 148 203l161 8l-501 -641l532 -657l-207 -105q-186 262 -254 346l-231 291h-8q0 -282 14 -600z" />
<glyph unicode="L" horiz-adv-x="851" d="M119 0q14 293 14 676q0 384 -14 682l237 8q-12 -329 -12 -684q0 -92 2.5 -291t3.5 -262h119q221 0 354 10q-25 -51 -57 -149q-173 10 -281 10h-366z" />
<glyph unicode="M" horiz-adv-x="1562" d="M76 -10q56 355 135 1317l-18 51l219 8l348 -1090q316 803 395 1082l227 8v-100q0 -495 58 -1266l-221 -10q-6 552 -43 1083q-221 -544 -402 -1073l-145 -10q-82 327 -336 1083q-76 -894 -86 -1073z" />
<glyph unicode="N" horiz-adv-x="1259" d="M61 1317l203 76q143 -213 416 -600l301 -433v725q0 129 -2 285l119 10q-4 -132 -4 -252v-847q0 -82 20 -258l-123 -39q-94 156 -315 473l-412 590v-334q0 -109 15 -713l-138 -10q11 564 11 764v446z" />
<glyph unicode="O" horiz-adv-x="1361" d="M57 594q0 209 76 361t246 292q178 146 356 146q95 0 182 -30.5t152 -86.5q114 -95 175 -236.5t61 -308.5q0 -158 -60.5 -297t-171.5 -244q-126 -115 -230 -171t-218 -56q-247 0 -407.5 175.5t-160.5 455.5zM225 727q0 -255 155.5 -421.5t383.5 -166.5q100 0 172.5 28 t95.5 69q82 145 82 348q0 289 -142 459.5t-374 170.5q-98 0 -171.5 -27t-98.5 -65q-44 -67 -73.5 -174t-29.5 -221z" />
<glyph unicode="P" horiz-adv-x="1009" d="M117 -10q12 322 12 686q0 362 -12 682q103 1 197 3t145.5 3.5t60.5 1.5q213 0 323.5 -91t110.5 -259q0 -120 -59 -215.5t-182 -179.5q-149 -101 -287 -101q-59 0 -90 4q0 -185 14 -524zM336 659q106 -18 158 -18q114 0 184 33q70 128 70 260q0 142 -100 227.5t-275 85.5 h-37v-588z" />
<glyph unicode="Q" horiz-adv-x="1361" d="M57 594q0 361 265 602q111 100 207 148.5t206 48.5q95 0 182 -30.5t152 -86.5q114 -95 175 -236.5t61 -308.5q0 -281 -191 -506l178 -121l-153 -141l-174 131q-172 -131 -340 -131q-247 0 -407.5 175.5t-160.5 455.5zM227 719q0 -135 49 -248.5t140 -191.5 q116 76 187 111.5t126 35.5q103 0 320 -160q65 133 65 320q0 289 -141.5 458.5t-374.5 169.5q-98 0 -171.5 -27t-98.5 -65q-44 -69 -72.5 -176t-28.5 -227zM442 252q62 -54 145 -84.5t173 -30.5q33 0 121 15q-91 57 -132 81.5t-91.5 46t-84.5 21.5q-60 0 -131 -49z" />
<glyph unicode="R" horiz-adv-x="1009" d="M109 -10q10 269 10 686q0 416 -10 682h45q85 0 194.5 4t134.5 4q210 0 320 -83t110 -234q0 -137 -94 -236.5t-276 -153.5q259 -363 454 -593l-194 -103q-347 477 -477 649q0 -297 14 -612zM326 655l155 97q57 -23 107 -31q121 88 121 237q0 133 -80 214t-207 81 q-46 0 -96 -6v-592z" />
<glyph unicode="S" horiz-adv-x="839" d="M53 164l180 119q51 -88 113.5 -128t147.5 -40q10 0 29 1t28 1q47 75 47 196q0 70 -26 118t-68.5 78t-124.5 69q-9 4 -42.5 18.5t-48 22t-40.5 22t-46.5 30t-39.5 34.5q-88 88 -88 233q0 208 188 369q45 38 113.5 62t134.5 24q76 0 142.5 -43t115.5 -125l-168 -115 q-100 141 -240 141q-31 0 -86 -10q-55 -64 -55 -170q0 -74 47 -139.5t135 -110.5q29 -15 90 -42.5t95 -46.5t59 -40q115 -95 115 -250q0 -219 -170 -366q-59 -53 -131 -83t-137 -30q-85 0 -155 51.5t-114 149.5z" />
<glyph unicode="T" horiz-adv-x="923" d="M-4 1233l90 133q128 -8 348 -8q240 0 516 4l-94 -129q-184 4 -289 4q-2 -88 -2 -264q0 -650 17 -973l-238 -10q14 359 14 909q0 51 -1 163.5t-1 174.5q-49 2 -139 2q-122 0 -221 -6z" />
<glyph unicode="U" horiz-adv-x="1218" d="M109 1358l231 8q-14 -333 -14 -846q0 -213 67.5 -305t245.5 -92q129 0 211 65q19 62 29 132t12 117.5t2 121.5v31q0 452 -12 768l231 8q-14 -293 -14 -684q0 -389 14 -682l-231 -10q8 120 10 160q-104 -96 -191.5 -141.5t-179.5 -45.5q-218 0 -309.5 126t-91.5 403v243 q0 325 -10 623z" />
<glyph unicode="V" horiz-adv-x="1130" d="M16 1339l213 37q194 -666 379 -1181q229 655 387 1163l142 8q-484 -1300 -484 -1366l-202 -10q-256 861 -435 1349z" />
<glyph unicode="W" horiz-adv-x="1585" d="M10 1339l211 37q197 -709 363 -1169q50 120 166 471q-58 205 -222 661l213 37q92 -334 123 -434q99 306 131 416l142 8q-152 -383 -222 -590l185 -559q227 658 362 1141l135 8q-450 -1271 -450 -1362v-4l-189 -10q-50 191 -157 530q-171 -455 -176 -520l-183 -10 q-237 804 -432 1349z" />
<glyph unicode="X" horiz-adv-x="1026" d="M35 -10q189 287 381 647q-205 424 -367 721l234 8l258 -537l278 529l150 8q-146 -238 -371 -641q239 -483 375 -725l-238 -10l-254 538q-88 -140 -280 -528z" />
<glyph unicode="Y" horiz-adv-x="933" d="M0 1339l219 37q139 -341 301 -688q189 415 279 670l121 8q-158 -369 -355 -805v-117q0 -249 10 -444l-225 -10q10 283 10 483v88q-123 290 -360 778z" />
<glyph unicode="Z" horiz-adv-x="954" d="M31 0q291 508 626 1190h-139q-113 0 -461 -4l60 180q404 -8 770 -8q-343 -643 -611 -1192q249 0 639 4l-53 -180q-301 7 -831 10z" />
<glyph unicode="[" horiz-adv-x="514" d="M115 -455q14 646 14 1063q0 355 -10 768h338l-56 -86h-135v-1661h197l-62 -84h-286z" />
<glyph unicode="\" horiz-adv-x="706" d="M14 1393h70l608 -1573h-71z" />
<glyph unicode="]" horiz-adv-x="514" d="M49 1290l64 86h286q-16 -394 -16 -1220q0 -186 10 -613h-338l58 84h135v1663h-199z" />
<glyph unicode="^" horiz-adv-x="1929" d="M395 848l482 526h174l481 -526h-170l-397 397l-400 -397h-170z" />
<glyph unicode="_" horiz-adv-x="1024" d="M0 -319h1024v-136h-1024v136z" />
<glyph unicode="`" horiz-adv-x="964" d="M248 1358h168l196 -330h-100z" />
<glyph unicode="a" horiz-adv-x="839" d="M53 215q0 136 114.5 228t295.5 92q45 0 102 -13q0 10 1 28.5t1 27.5q0 109 -53 157.5t-174 48.5q-140 0 -238 -79l-22 20l170 180q108 19 166 19q171 0 253.5 -79t82.5 -239q0 -11 -5 -212.5t-4 -393.5l-184 -10l6 108q-38 -20 -86 -45.5t-73 -39t-51 -26.5t-39.5 -18.5 t-20.5 -5.5q-91 0 -166.5 73.5t-75.5 178.5zM221 328q0 -91 60 -151t153 -60q60 0 131 26v263q-118 43 -207 43q-58 0 -108 -21q-29 -45 -29 -100z" />
<glyph unicode="b" horiz-adv-x="897" d="M84 1358l195 8q-7 -294 -7 -569q40 19 86.5 42.5t72 36.5t51.5 25.5t40.5 17.5t22.5 5q31 0 82.5 -21t95.5 -57q129 -105 129 -301q0 -130 -43.5 -247.5t-79.5 -147.5q-74 -61 -148 -106.5t-115.5 -63t-55.5 -17.5q-109 0 -324 74q2 313 2 639q0 471 -4 682zM268 348 q0 -28 1 -93t1 -103q169 -62 254 -62h25q115 146 115 344q0 167 -65.5 262t-172.5 95q-27 0 -68 -13q-53 -60 -71.5 -160.5t-18.5 -269.5z" />
<glyph unicode="c" horiz-adv-x="784" d="M45 383q0 99 28 180.5t83 181.5q21 32 34 37l220 123q34 19 96 19q80 0 143.5 -54t98.5 -155l-175 -90q-75 174 -208 174q-23 0 -64 -13q-78 -135 -78 -288q0 -182 96 -292t246 -110q66 0 172 39l11 -20q-118 -82 -181.5 -117t-113.5 -35q-179 0 -293.5 116.5 t-114.5 303.5z" />
<glyph unicode="d" horiz-adv-x="907" d="M45 356q0 134 57 262.5t123 188.5q59 51 138.5 84t117.5 33q25 0 154 -27l-6 461l192 8q-4 -201 -4 -684q0 -481 4 -682l-192 -10l4 108q-33 -18 -79.5 -44.5t-68.5 -39t-49 -26.5t-42.5 -19.5t-26.5 -5.5q-83 0 -177 70q-145 108 -145 323zM240 426q0 -152 65 -239 t174 -87q18 0 68 11q55 60 71.5 161.5t16.5 292.5v168q-133 76 -266 76q-25 0 -52 -8q-77 -163 -77 -375z" />
<glyph unicode="e" horiz-adv-x="784" d="M45 401q0 133 38 237.5t91 145.5q84 68 165.5 104t133.5 36q114 0 192 -98t78 -259v-24l-188 -92h-338q15 -164 113 -256.5t256 -92.5q79 0 149 33l13 -22q-10 -7 -38 -25.5t-37 -24.5t-32.5 -21t-33 -20.5t-29 -16.5t-29.5 -15t-26.5 -11t-28 -9.5t-25.5 -4.5t-27 -2 q-182 0 -289.5 118.5t-107.5 319.5zM213 537h338v10q0 118 -56.5 187t-148.5 69q-35 0 -65 -12q-68 -92 -68 -254z" />
<glyph unicode="f" horiz-adv-x="552" d="M51 805l51 84h66q3 170 55 258q43 71 101 121q151 125 225 125q23 0 47 -7l-84 -153q-52 12 -92 12q-44 0 -55 -16.5t-11 -85.5v-88q0 -88 2 -166h162l-45 -84h-117q0 -24 -1 -116.5t-1 -158.5q0 -287 6 -530l-196 -10q4 204 4 680v135h-117z" />
<glyph unicode="g" horiz-adv-x="964" d="M92 -215q0 16 9 31.5t37 41t49.5 43t76.5 60.5q-75 0 -115 17t-40 45q0 24 36.5 89.5t106.5 147.5q-143 82 -143 244q0 74 29.5 140.5t78.5 103.5q205 159 289 159h10h391l-149 -102q84 -63 84 -191q0 -165 -170 -288q-159 -111 -264 -111q-59 0 -125 31q-33 -42 -33 -70 q0 -43 47.5 -59.5t151.5 -16.5q29 0 82.5 3t78.5 3q115 0 177.5 -51t62.5 -139q0 -65 -32 -121t-101 -117q-154 -133 -334 -133q-129 0 -210 68.5t-81 171.5zM266 -154q0 -76 63 -119.5t181 -43.5q111 0 180 49q10 25 10 69q0 100 -48.5 135t-172.5 35q-75 0 -164 -12 q-49 -46 -49 -113zM287 592q0 -122 62 -191t167 -69q44 0 96 14q58 58 58 170q0 126 -72 204.5t-182 78.5q-23 0 -60 -11q-69 -78 -69 -196z" />
<glyph unicode="h" horiz-adv-x="903" d="M84 -10q4 160 4 469v295q0 454 -4 604l195 8q-5 -250 -5 -328q0 -41 1 -129t1 -135q123 92 240 146q36 4 49 4q113 0 197 -84q35 -35 44 -87t9 -151v-24q0 -63 -1 -127.5t-1 -65.5q0 -9 4 -385l-192 -10q4 127 4 491q0 109 -6.5 160.5t-30.5 75.5q-58 61 -162 61 q-46 0 -68.5 -6.5t-35.5 -28.5q-36 -64 -45 -156.5t-9 -271.5q0 -93 7 -315z" />
<glyph unicode="i" horiz-adv-x="382" d="M47 1147l135 156l137 -66l-137 -156zM94 -10q4 164 4 450q0 285 -4 449l195 8q-4 -150 -4 -448q0 -299 4 -449z" />
<glyph unicode="j" horiz-adv-x="397" d="M-6 -430q76 30 97.5 128t21.5 320v203q0 343 -7 668l197 8q-4 -180 -4 -494v-198v-82q0 -161 -8.5 -245t-40.5 -136q-68 -104 -246 -197zM59 1147l136 156l137 -66l-137 -156z" />
<glyph unicode="k" horiz-adv-x="882" d="M94 -10q4 190 4 686q0 504 -4 682l191 8q-2 -160 -2 -547v-354l198 217q131 143 181 207l153 8q-238 -241 -364 -375l411 -463l-182 -82l-399 453q0 -74 4 -430z" />
<glyph unicode="l" horiz-adv-x="382" d="M94 -10q4 190 4 686q0 494 -4 682l195 8q-4 -201 -4 -684q0 -481 4 -682z" />
<glyph unicode="m" horiz-adv-x="1320" d="M84 -10q4 164 4 450q0 285 -4 449l195 8q0 -36 -1.5 -77t-1.5 -46l205 139q42 11 68 11q137 0 194 -150q104 84 189 141q21 9 45 9q105 0 172 -50t76 -135q6 -45 6 -252v-77q0 -248 4 -410l-191 -10q5 289 5 491q0 165 -34 233t-134 68q-64 0 -74 -20q-53 -85 -53 -313 q0 -215 6 -449l-193 -10q6 220 6 387v77t-1.5 67.5t-3.5 61.5t-6 51.5t-10 45t-14.5 35t-20.5 29.5t-27 19.5t-34 13t-42 3.5q-25 0 -44.5 -6.5t-34.5 -24t-25.5 -37.5t-17.5 -57t-11 -71t-6 -91.5t-2.5 -106.5t-0.5 -128q0 -67 7 -258z" />
<glyph unicode="n" horiz-adv-x="903" d="M84 -10q4 164 4 450q0 285 -4 449l195 8q0 -36 -1.5 -77t-1.5 -46q123 92 240 146q36 4 49 4q113 0 197 -84q35 -35 44 -87t9 -151v-24q0 -63 -1 -127.5t-1 -65.5q0 -9 4 -385l-192 -10q4 127 4 491q0 109 -6.5 160.5t-30.5 75.5q-58 61 -162 61q-46 0 -68.5 -6.5 t-35.5 -28.5q-36 -64 -45 -156.5t-9 -271.5q0 -93 7 -315z" />
<glyph unicode="o" horiz-adv-x="907" d="M45 367q0 162 88 342l240 188q11 8 48 17.5t87 9.5q166 0 260 -101t94 -282q0 -186 -96 -365l-219 -178q-51 -35 -131 -35q-167 0 -269 110t-102 294zM217 483q0 -176 82.5 -271t232.5 -95q60 0 105 26q49 90 49 273q0 175 -73.5 273.5t-196.5 98.5q-65 0 -121 -22 q-78 -78 -78 -283z" />
<glyph unicode="p" horiz-adv-x="892" d="M84 -455q4 230 4 682q0 476 -4 662l195 8l-3 -106l211 129q14 4 39 4q127 0 224.5 -112.5t97.5 -283.5q0 -121 -37.5 -221t-116.5 -203q-18 -28 -119 -81q-111 -60 -145 -60q-40 0 -158 31q0 -83 7 -440zM270 350q0 -56 4 -200q139 -74 246 -74q19 0 55 8q80 154 80 362 q0 161 -69.5 256t-177.5 95q-23 0 -50 -6q-50 -53 -69 -157t-19 -284z" />
<glyph unicode="q" horiz-adv-x="907" d="M43 356q0 103 31.5 208t85.5 181q27 38 59 60q179 119 285 119q48 0 147 -35l170 18q-4 -186 -4 -669q0 -528 4 -684l-192 -9q4 234 4 389v162q-154 -91 -240 -131q-154 0 -252 108t-98 283zM223 434q0 -149 85 -237t208 -88q21 0 45 6q14 11 25 26.5t19 40t13.5 46 t9 60.5t5.5 67t2.5 82t1 89t0.5 104.5v112.5q-138 72 -242 72q-46 0 -82 -16q-90 -162 -90 -365z" />
<glyph unicode="r" horiz-adv-x="612" d="M92 -10q6 246 6 450q0 203 -6 449l197 8l-6 -127q73 76 130.5 115t88.5 39q29 0 64 -39t71 -115l-170 -121q-22 57 -51 90t-45 33q-20 0 -39.5 -37.5t-33 -119.5t-13.5 -191q0 -266 4 -424z" />
<glyph unicode="s" horiz-adv-x="706" d="M68 170l165 80q73 -174 187 -174h12q45 55 45 125q0 53 -32 81.5t-111 63.5q-125 56 -162 82q-75 53 -86 143q-2 18 -2 39q0 74 23 121t77 84q77 53 135 81t78 28q73 0 136.5 -52t99.5 -147l-156 -82q-30 83 -75 122.5t-115 39.5q-21 0 -31 -2q-35 -47 -35 -105 q0 -86 123 -145q24 -11 66 -28.5t65.5 -28.5t52 -29t47.5 -39q52 -58 52 -152q0 -105 -68 -176.5t-219 -136.5q-104 1 -174 55.5t-98 151.5z" />
<glyph unicode="t" horiz-adv-x="614" d="M25 805l92 84h35v166l184 61v-227h235l-96 -84h-137q-2 -162 -2 -316v-88q0 -61 1 -97.5t5 -74.5t11 -58t19.5 -37t31 -23.5t45.5 -6.5q49 0 110 25l14 -23q-86 -73 -152 -108t-128 -35q-30 0 -52 6.5t-37.5 16t-25.5 30t-15.5 39t-8.5 54.5t-3.5 64t-0.5 79q0 70 1 194 t1 177q0 123 -2 182h-125z" />
<glyph unicode="u" horiz-adv-x="903" d="M84 889l195 8q-7 -212 -7 -494q0 -102 7 -154.5t30 -76.5q61 -61 164 -61q45 0 67 7t35 29q36 64 46 159t10 269q0 135 -6 314l192 8q-4 -300 -4 -448q0 -149 4 -449l-192 -10q0 59 2 127q-128 -96 -244 -148q-14 -2 -41 -2q-131 0 -192.5 70.5t-61.5 218.5v246 q0 207 -4 387z" />
<glyph unicode="v" horiz-adv-x="804" d="M2 889l188 35l254 -744l244 709l115 18q-307 -792 -307 -839q0 -16 20 -58l-192 -20q-69 231 -322 899z" />
<glyph unicode="w" horiz-adv-x="1222" d="M39 889l192 35q75 -361 179 -734q54 163 165 617l-28 82l190 35l176 -734l183 699l116 8q-198 -600 -266 -897l-170 -10q-46 220 -151 659l-183 -649l-170 -10q-89 423 -233 899z" />
<glyph unicode="x" horiz-adv-x="831" d="M4 877l197 47q170 -272 243 -375q131 170 248 348l133 10q-184 -232 -329 -432q83 -132 319 -461l-211 -34q-109 180 -221 344q-118 -146 -236 -324l-133 -10q150 180 314 409l-101 154q-7 13 -32.5 49.5t-82.5 118.5t-108 156z" />
<glyph unicode="y" horiz-adv-x="839" d="M0 897l205 27q154 -449 272 -701l240 666l121 18q-262 -629 -521 -1353l-137 -9q79 167 125 273l70 159q-208 534 -375 920z" />
<glyph unicode="z" horiz-adv-x="794" d="M31 -10l506 762h-433l50 145h581l-499 -754h190q212 0 322 9l-43 -162q-127 10 -259 10q-183 0 -415 -10z" />
<glyph unicode="{" horiz-adv-x="964" d="M158 430v141q8 0 22 -1t21 -1q124 0 173.5 57t49.5 195v232q0 126 17 190.5t77 99.5q78 48 264 48h33v-142h-37q-119 0 -155.5 -43.5t-36.5 -171.5v-227q0 -142 -38.5 -209.5t-150.5 -97.5q113 -29 151 -96.5t38 -210.5v-228q0 -66 7 -103.5t28 -64.5t58.5 -37t100.5 -10 h35v-139h-39q-95 0 -154.5 9t-103.5 36q-59 37 -76.5 102t-17.5 189v231q0 138 -50 196t-175 58q-7 0 -20.5 -1t-20.5 -1z" />
<glyph unicode="|" horiz-adv-x="964" d="M414 -455v1930h139v-1930h-139z" />
<glyph unicode="}" horiz-adv-x="964" d="M150 -250h36q120 0 157.5 44.5t37.5 172.5v226q0 142 38 209.5t150 97.5q-112 30 -150 97.5t-38 209.5v227q0 127 -37.5 171t-157.5 44h-36v142h34q187 0 265 -48q60 -35 77 -99.5t17 -190.5v-232q0 -138 49.5 -195t173.5 -57q7 0 21 1t22 1v-141q-7 0 -21 1t-20 1 q-126 0 -175.5 -58t-49.5 -196v-231q0 -124 -17.5 -189t-76.5 -102q-44 -27 -104 -36t-155 -9h-40v139z" />
<glyph unicode="~" horiz-adv-x="1607" d="M168 424v147q201 136 364 136q110 0 275 -58q138 -51 195 -62q39 -7 75 -7q160 0 365 145v-145q-189 -134 -367 -134q-20 0 -40 1.5t-42.5 6.5t-37 8t-40.5 11.5t-35.5 11.5t-40 14t-36.5 13q-60 21 -92.5 31t-84 20t-96.5 10q-83 0 -168.5 -36.5t-193.5 -112.5z" />
<glyph unicode="&#xa1;" horiz-adv-x="567" d="M156 1186q59 54 131 133q65 -68 133 -133q-77 -63 -133 -131q-59 72 -131 131zM180 -37q46 530 66 1006l88 16q13 -761 53 -985z" />
<glyph unicode="&#xa2;" d="M135 647q0 194 88.5 316.5t276.5 191.5l-4 215l71 19l-2 -220q249 0 334 -215l-174 -71q-35 120 -160 147v-655q82 -21 127 -21q92 0 180 45l13 -24l-215 -131q-27 -10 -105 -13l2 -239l-71 -10l4 251q-175 17 -270 124t-95 290zM309 758q0 -135 46 -222.5t145 -134.5 v641q-35 5 -45 5q-51 0 -86 -15q-60 -89 -60 -274z" />
<glyph unicode="&#xa3;" d="M39 0l51 160q118 27 160.5 102t42.5 240q0 33 -4 119h-195v71h193q-2 27 -2 60q0 126 27 212.5t98 168.5q105 122 266 245q46 15 92 15q125 0 231 -78l-143 -185q-123 70 -225 70q-49 0 -96 -18q-50 -50 -63 -140t-13 -274q0 -7 1 -32.5t1 -43.5h241v-71h-237 q2 -35 2 -97q0 -123 -21 -188q-32 -78 -206 -176h663l-55 -160h-809z" />
<glyph unicode="&#xa4;" horiz-adv-x="1169" d="M76 403l194 193q-80 99 -80 238q0 131 80 237l-194 195l76 75l194 -194q104 82 238 82t241 -82l193 194l78 -75l-193 -195q78 -107 78 -237q0 -132 -78 -238l193 -193l-78 -77l-193 192q-111 -80 -239 -80q-134 0 -240 80l-194 -192zM301 836q0 -119 83.5 -203t201.5 -84 q120 0 203 84t83 203q0 118 -83 201t-203 83q-118 0 -201.5 -83.5t-83.5 -200.5z" />
<glyph unicode="&#xa5;" d="M82 561v64h334l-94 202h-240v64h209l-209 448l207 37l205 -485h192q146 355 184 467l115 8l-207 -475h207v-64h-235l-93 -202h328v-64h-358v-86q0 -223 12 -475l-205 -10q10 200 10 452v119h-362zM518 827q18 -42 72 -204l72 204h-144z" />
<glyph unicode="&#xa6;" horiz-adv-x="964" d="M414 -330v713h139v-713h-139zM414 635v713h139v-713h-139z" />
<glyph unicode="&#xa7;" horiz-adv-x="964" d="M61 664q0 66 40.5 113t136.5 106q-84 90 -84 184q0 68 23 114.5t75 94.5q129 117 229 117q116 0 196 -63.5t105 -176.5l-137 -70q-26 94 -89.5 145.5t-149.5 51.5q-50 0 -89 -10q-43 -43 -43 -103q0 -80 62.5 -149t198.5 -146q47 -27 128.5 -69.5t112.5 -61.5 q66 -43 94.5 -82.5t28.5 -109.5q0 -66 -40 -113t-136 -106q86 -83 86 -180q0 -71 -22.5 -116.5t-75.5 -94.5q-130 -121 -230 -121q-271 0 -356 241l139 70q39 -100 110.5 -152.5t166.5 -52.5q45 0 104 19q43 40 43 102q0 87 -66.5 152.5t-220.5 152.5q-34 20 -83.5 47 t-76 42t-61 36.5t-52.5 39t-35.5 40.5t-24.5 50t-7 59zM199 727q0 -33 20 -62t67 -61.5t96.5 -61.5t138.5 -80.5t163 -99.5q80 41 80 125q0 27 -16 52.5t-41 47.5t-72 51.5t-93.5 55.5t-122 70.5t-140.5 85.5q-80 -41 -80 -123z" />
<glyph unicode="&#xa8;" horiz-adv-x="964" d="M182 1178q61 52 119 118q41 -47 119 -118q-77 -72 -119 -119q-55 64 -119 119zM545 1178q63 57 117 118q49 -57 120 -118q-63 -57 -120 -119q-52 60 -117 119z" />
<glyph unicode="&#xa9;" horiz-adv-x="1607" d="M111 684q0 182 89.5 341.5t250 257t352.5 97.5q186 0 346 -91.5t255 -252.5t95 -352q0 -145 -59 -275.5t-155.5 -221t-223 -144t-258.5 -53.5q-183 0 -343 95.5t-254.5 256t-94.5 342.5zM201 684q0 -157 81.5 -295.5t221 -221.5t301.5 -83q115 0 224.5 45.5t192.5 124 t134 191.5t51 239q0 167 -81.5 306t-220 218.5t-300.5 79.5q-126 0 -239 -51t-192.5 -134.5t-126 -193.5t-46.5 -225zM436 690q0 191 103 305.5t270 114.5q133 0 221.5 -71t99.5 -185h-139q-11 72 -61 112t-131 40q-97 0 -155 -84.5t-58 -237.5q0 -149 59.5 -230t163.5 -81 q77 0 128 44t64 122h138q-9 -123 -102 -200t-234 -77q-170 0 -268.5 113t-98.5 315z" />
<glyph unicode="&#xaa;" horiz-adv-x="628" d="M41 870q0 96 85 160t222 64q15 0 76 -9q0 7 1 20t1 17q0 77 -40.5 112.5t-131.5 35.5q-102 0 -176 -58l-19 15l129 125q72 14 125 14q252 0 252 -221q0 -8 -4 -149t-4 -277l-137 -4l4 73q-20 -10 -47.5 -23.5t-42.5 -21l-34 -17t-29.5 -14.5t-21.5 -9.5t-17.5 -6.5 t-10.5 -2q-68 0 -124 51t-56 125zM166 948q0 -63 45 -105t115 -42q40 0 98 18v185q-86 28 -154 28q-46 0 -84 -14q-20 -29 -20 -70z" />
<glyph unicode="&#xab;" horiz-adv-x="831" d="M70 395l338 391l38 -32l-229 -291l232 -258l-113 -103zM375 395l338 391l39 -32l-230 -291l232 -258l-113 -103z" />
<glyph unicode="&#xac;" horiz-adv-x="1607" d="M240 680v131h1128v-473h-129v342h-999z" />
<glyph unicode="&#xad;" horiz-adv-x="473" d="M41 385l53 135h340l-53 -135h-340z" />
<glyph unicode="&#xae;" horiz-adv-x="1607" d="M111 684q0 182 89.5 341.5t250 257t352.5 97.5q186 0 346 -91.5t255 -252.5t95 -352q0 -145 -59 -275.5t-155.5 -221t-223 -144t-258.5 -53.5q-183 0 -343 95.5t-254.5 256t-94.5 342.5zM201 684q0 -157 81.5 -295.5t221 -221.5t301.5 -83q115 0 224.5 45.5t192.5 124 t134 191.5t51 239q0 167 -81.5 306t-220 218.5t-300.5 79.5q-126 0 -239 -51t-192.5 -134.5t-126 -193.5t-46.5 -225zM524 305v787h297q328 0 328 -215q0 -85 -46.5 -140.5t-131.5 -72.5l176 -359h-166l-162 336h-145v-336h-150zM674 735h125q103 0 150.5 28.5t47.5 96.5 q0 71 -48.5 103t-153.5 32h-121v-260z" />
<glyph unicode="&#xaf;" horiz-adv-x="964" d="M240 1118v119h485v-119h-485z" />
<glyph unicode="&#xb0;" horiz-adv-x="634" d="M47 1100q0 113 79.5 192.5t190.5 79.5q112 0 191.5 -79.5t79.5 -192.5q0 -112 -78.5 -191.5t-194.5 -79.5q-114 0 -191 78.5t-77 192.5zM135 1102q0 -77 53.5 -132t128.5 -55q77 0 130 55.5t53 131.5q0 75 -53.5 127.5t-129.5 52.5t-129 -52t-53 -128z" />
<glyph unicode="&#xb1;" horiz-adv-x="1607" d="M240 27v133h1128v-133h-1128zM240 672v131h497v319h133v-319h498v-131h-498v-322h-133v322h-497z" />
<glyph unicode="&#xb2;" horiz-adv-x="690" d="M49 543l35 96q177 48 211 70q33 20 70 77q75 103 75 228t-64.5 193.5t-178.5 68.5q-84 0 -136 -35l-8 6l99 101q11 9 49.5 19.5t87.5 10.5q120 0 195 -76t75 -202q0 -124 -73.5 -243t-213.5 -218h299l-36 -96h-486z" />
<glyph unicode="&#xb3;" horiz-adv-x="690" d="M100 614l107 91q89 -95 188 -95q21 0 47 11q25 32 25 69q0 95 -72 160t-180 65q-41 0 -72 -8l-6 8l109 99q21 6 53 6q49 0 80 -10q39 56 39 120q0 78 -42 119t-120 41q-60 0 -119 -33l-6 11l113 94q59 16 104 16q92 0 149.5 -51t57.5 -131q0 -109 -139 -199 q76 -31 121 -92t45 -133q0 -70 -53.5 -125.5t-176.5 -124.5q-12 -2 -43 -2q-137 0 -209 94z" />
<glyph unicode="&#xb4;" horiz-adv-x="964" d="M352 1028l197 330h168l-264 -330h-101z" />
<glyph unicode="&#xb5;" horiz-adv-x="903" d="M84 -455q4 230 4 957q0 207 -4 387l195 8q-7 -212 -7 -494q0 -102 7 -154.5t30 -76.5q61 -61 164 -61q45 0 67 7t35 29q36 64 46 159t10 269q0 135 -6 314l192 8q-4 -300 -4 -448q0 -149 4 -449l-192 -10q0 59 2 127q-128 -96 -244 -148q-14 -2 -41 -2q-40 0 -70 6 q0 -76 7 -419z" />
<glyph unicode="&#xb6;" horiz-adv-x="964" d="M61 1065q0 146 101 237t270 91h471v-80h-115v-1313h-104v1313h-168v-1313h-102v737q-163 7 -258 97t-95 231z" />
<glyph unicode="&#xb7;" horiz-adv-x="522" d="M162 696q0 39 29.5 69t68.5 30q41 0 69.5 -29.5t28.5 -69.5t-29 -69t-69 -29q-38 0 -68 30t-30 68z" />
<glyph unicode="&#xb8;" horiz-adv-x="964" d="M332 -352q117 7 175 49t58 98q0 43 -45 43q-43 0 -117 -20l54 182h55l-25 -86h23q76 0 116 -31t40 -88q0 -92 -86.5 -148t-247.5 -55v56z" />
<glyph unicode="&#xb9;" horiz-adv-x="690" d="M272 543q11 177 11 596q0 127 -2 207l135 32q-6 -289 -6 -499q0 -161 6 -336h-144z" />
<glyph unicode="&#xba;" horiz-adv-x="681" d="M33 977q0 112 67 237l181 134q27 18 100 18q126 0 196 -70.5t70 -197.5q0 -125 -72 -254l-165 -127q-38 -23 -97 -23q-125 0 -202.5 77.5t-77.5 205.5zM164 1059q0 -124 61 -190t174 -66q47 0 80 16q37 66 37 193q0 122 -56 191t-147 69q-39 0 -92 -17q-57 -51 -57 -196z " />
<glyph unicode="&#xbb;" horiz-adv-x="831" d="M78 682l112 104l265 -292l-338 -392l-37 31l227 293zM383 133l231 293l-231 256l113 104l264 -292l-338 -392z" />
<glyph unicode="&#xbc;" horiz-adv-x="1640" d="M260 596q10 198 10 555q0 45 -4 197l131 28q-8 -356 -8 -467q0 -165 8 -313h-137zM336 -37l895 1430h69l-894 -1430h-70zM1024 250q250 363 332 504l117 26q0 -12 -1.5 -105t-1.5 -177q0 -4 1.5 -61.5t1.5 -110.5h100l-27 -76h-73q0 -121 6 -250h-131q8 176 8 250h-332z M1116 326h240v362z" />
<glyph unicode="&#xbd;" horiz-adv-x="1640" d="M260 596q10 198 10 555q0 45 -4 197l131 28q-8 -356 -8 -467q0 -165 8 -313h-137zM336 -37l895 1430h69l-894 -1430h-70zM1028 0l33 88q177 50 201 68q31 20 67 71q72 101 72 215t-63 178t-171 64q-81 0 -127 -33l-8 6l94 93q10 10 45.5 20t83.5 10q114 0 186 -71 t72 -189q0 -116 -70 -226.5t-204 -205.5h287l-37 -88h-461z" />
<glyph unicode="&#xbe;" horiz-adv-x="1640" d="M96 664l101 84q83 -89 182 -89q27 0 43 11q24 27 24 65q0 89 -69 150t-172 61q-32 0 -68 -10l-8 8l104 92q21 8 52 8q45 0 75 -12q39 55 39 113q0 73 -39.5 111t-113.5 38q-53 0 -117 -28l-4 8l106 86q47 16 99 16q89 0 144.5 -47.5t55.5 -122.5q0 -97 -133 -186 q73 -28 115.5 -84.5t42.5 -124.5q0 -66 -50 -117t-167 -114q-18 -5 -45 -5q-127 0 -197 89zM336 -37l895 1430h69l-894 -1430h-70zM1024 250q250 363 332 504l117 26q0 -12 -1.5 -105t-1.5 -177q0 -4 1.5 -61.5t1.5 -110.5h100l-27 -76h-73q0 -121 6 -250h-131q8 176 8 250 h-332zM1116 326h240v362z" />
<glyph unicode="&#xbf;" horiz-adv-x="804" d="M74 260q0 41 10 79.5t21.5 65.5t39.5 66t45.5 59.5t58.5 66.5q10 11 15 17q35 40 49 57.5t34.5 49t28 60t7.5 63.5q0 46 -14 78l180 71q1 -10 2 -22l1.5 -18t0.5 -9q0 -52 -14.5 -89t-44.5 -77q-23 -32 -69 -94t-66 -91t-46.5 -73t-36.5 -79.5t-10 -71.5 q0 -120 68.5 -191.5t177.5 -71.5q94 0 203 76l20 -22l-153 -156q-97 -41 -179 -41q-147 0 -238 84t-91 213zM305 1194q74 71 131 133q64 -69 133 -133q-78 -65 -133 -131q-50 57 -131 131z" />
<glyph unicode="&#xc0;" horiz-adv-x="1120" d="M-4 -12q205 543 235 633l203 600l-53 116l205 56q28 -76 168 -445l192 -493q75 -199 178 -435l-215 -43l-172 478h-450l-146 -455zM289 1827h168l196 -330h-100zM330 584h360l-194 508z" />
<glyph unicode="&#xc1;" horiz-adv-x="1120" d="M-4 -12q205 543 235 633l203 600l-53 116l205 56q28 -76 168 -445l192 -493q75 -199 178 -435l-215 -43l-172 478h-450l-146 -455zM330 584h360l-194 508zM393 1497l197 330h168l-264 -330h-101z" />
<glyph unicode="&#xc2;" horiz-adv-x="1120" d="M-4 -12q205 543 235 633l203 600l-53 116l205 56q28 -76 168 -445l192 -493q75 -199 178 -435l-215 -43l-172 478h-450l-146 -455zM258 1538l213 274h102l215 -274l-131 -25l-135 195l-133 -195zM330 584h360l-194 508z" />
<glyph unicode="&#xc3;" horiz-adv-x="1120" d="M-4 -12q205 543 235 633l203 600l-53 116l205 56q28 -76 168 -445l192 -493q75 -199 178 -435l-215 -43l-172 478h-450l-146 -455zM250 1552q41 177 184 177q29 0 58 -11l73 -24q37 -11 58 -11q67 0 92 66h82q-22 -85 -70 -132.5t-117 -47.5q-36 0 -61 10l-76 25 q-27 10 -49 10q-63 0 -92 -62h-82zM330 584h360l-194 508z" />
<glyph unicode="&#xc4;" horiz-adv-x="1120" d="M-4 -12q205 543 235 633l203 600l-53 116l205 56q28 -76 168 -445l192 -493q75 -199 178 -435l-215 -43l-172 478h-450l-146 -455zM223 1647q61 52 119 118q41 -47 119 -118q-77 -72 -119 -119q-55 64 -119 119zM330 584h360l-194 508zM586 1647q59 52 116 118 q46 -53 121 -118q-69 -62 -121 -119q-55 64 -116 119z" />
<glyph unicode="&#xc5;" horiz-adv-x="1120" d="M-4 -12q205 543 235 633l203 600l-28 51l206 55q30 -91 142 -379l192 -493q75 -199 178 -435l-215 -43l-172 478h-450l-146 -455zM330 584h360l-194 508zM358 1546q0 75 53.5 137t127.5 62q54 0 89.5 -40t35.5 -101q0 -79 -54.5 -138t-128.5 -59q-54 0 -88.5 42.5 t-34.5 96.5zM436 1579q0 -40 29 -68t67 -28q21 0 41 10q11 44 11 72q0 46 -27.5 76t-64.5 30q-17 0 -27 -2q-29 -56 -29 -90z" />
<glyph unicode="&#xc6;" horiz-adv-x="1603" d="M0 -12q376 657 692 1241l-80 129h203q437 0 682 8l-61 -137q-63 8 -224 8h-176q-4 -23 -4 -119v-137v-227h94q205 0 361 6l-64 -131q-94 6 -163 6h-228v-211v-150q0 -114 4 -145q39 -2 107 -2h92q196 0 278 10l-67 -147q-167 10 -453 10h-178q8 338 10 455h-415 l-242 -455zM479 584h344v653z" />
<glyph unicode="&#xc7;" horiz-adv-x="1134" d="M53 608q0 395 328 627q112 80 205 119t196 39q162 0 305 -93l-137 -163q-137 86 -311 86q-90 0 -159 -17.5t-97 -40.5q-76 -61 -121 -175t-45 -255q0 -262 162 -427t422 -165q168 0 293 93l28 -37q-24 -17 -73.5 -53.5t-70 -51t-59 -40.5t-61.5 -37.5t-55 -25.5 t-60.5 -20t-58.5 -8l-18 -63h26q170 0 170 -133q0 -98 -94 -159.5t-270 -60.5v62q128 7 190 53t62 109q0 45 -50 45q-33 0 -127 -23l50 172q-262 13 -416 187t-154 456z" />
<glyph unicode="&#xc8;" horiz-adv-x="876" d="M109 0q10 261 10 676q0 416 -10 682q437 0 682 8l-62 -137q-63 8 -223 8h-176q-4 -23 -4 -119v-137v-227h90q200 0 366 6l-65 -131q-95 6 -164 6h-227v-211v-150q0 -114 4 -145q39 -2 106 -2h92q197 0 279 10l-66 -147q-170 10 -454 10h-178zM203 1827h168l196 -330h-100 z" />
<glyph unicode="&#xc9;" horiz-adv-x="876" d="M109 0q10 261 10 676q0 416 -10 682q437 0 682 8l-62 -137q-63 8 -223 8h-176q-4 -23 -4 -119v-137v-227h90q200 0 366 6l-65 -131q-95 6 -164 6h-227v-211v-150q0 -114 4 -145q39 -2 106 -2h92q197 0 279 10l-66 -147q-170 10 -454 10h-178zM307 1497l197 330h168 l-264 -330h-101z" />
<glyph unicode="&#xca;" horiz-adv-x="876" d="M109 0q10 261 10 676q0 416 -10 682q437 0 682 8l-62 -137q-63 8 -223 8h-176q-4 -23 -4 -119v-137v-227h90q200 0 366 6l-65 -131q-95 6 -164 6h-227v-211v-150q0 -114 4 -145q39 -2 106 -2h92q197 0 279 10l-66 -147q-170 10 -454 10h-178zM172 1538l213 274h102 l215 -274l-131 -25l-135 195l-133 -195z" />
<glyph unicode="&#xcb;" horiz-adv-x="876" d="M109 0q10 261 10 676q0 416 -10 682q437 0 682 8l-62 -137q-63 8 -223 8h-176q-4 -23 -4 -119v-137v-227h90q200 0 366 6l-65 -131q-95 6 -164 6h-227v-211v-150q0 -114 4 -145q39 -2 106 -2h92q197 0 279 10l-66 -147q-170 10 -454 10h-178zM137 1647q61 52 119 118 q41 -47 119 -118q-77 -72 -119 -119q-55 64 -119 119zM500 1647q59 52 116 118q46 -53 121 -118q-69 -62 -121 -119q-55 64 -116 119z" />
<glyph unicode="&#xcc;" horiz-adv-x="479" d="M4 1827h168l197 -330h-101zM119 -10q14 301 14 686q0 384 -14 682l237 8q-12 -313 -12 -684q0 -368 12 -682z" />
<glyph unicode="&#xcd;" horiz-adv-x="479" d="M109 1497l196 330h168l-264 -330h-100zM119 -10q14 301 14 686q0 384 -14 682l237 8q-12 -313 -12 -684q0 -368 12 -682z" />
<glyph unicode="&#xce;" horiz-adv-x="479" d="M-27 1538l213 274h103l215 -274l-131 -25l-135 195l-134 -195zM119 -10q14 301 14 686q0 384 -14 682l237 8q-12 -313 -12 -684q0 -368 12 -682z" />
<glyph unicode="&#xcf;" horiz-adv-x="479" d="M-61 1647q58 49 118 118q41 -47 119 -118q-77 -72 -119 -119q-58 67 -118 119zM119 -10q14 301 14 686q0 384 -14 682l237 8q-12 -313 -12 -684q0 -368 12 -682zM301 1647q63 57 117 118q46 -53 121 -118q-69 -62 -121 -119q-52 60 -117 119z" />
<glyph unicode="&#xd0;" horiz-adv-x="1273" d="M0 649v74h119q0 381 -10 635h30h62q63 0 178 4t168 4q318 0 492.5 -153t174.5 -422q0 -194 -77.5 -356.5t-237.5 -307.5q-71 -63 -171.5 -100t-211.5 -37q-23 0 -100.5 5t-132.5 5h-174q10 269 10 649h-119zM326 649q0 -296 4 -508q108 -24 209 -24q259 0 376 108.5 t117 347.5q0 323 -170.5 502.5t-478.5 179.5q-33 0 -53 -2q-4 -262 -4 -530h309v-74h-309z" />
<glyph unicode="&#xd1;" horiz-adv-x="1259" d="M61 1317l203 76q143 -213 416 -600l301 -433v725q0 129 -2 285l119 10q-4 -132 -4 -252v-847q0 -82 20 -258l-123 -39q-94 156 -315 473l-412 590v-334q0 -109 15 -713l-138 -10q11 564 11 764v446zM358 1552q20 87 67.5 132t117.5 45q28 0 57 -11l74 -24q37 -11 57 -11 q67 0 92 66h82q-22 -85 -69.5 -132.5t-116.5 -47.5q-37 0 -62 10l-75 25q-27 10 -50 10q-63 0 -92 -62h-82z" />
<glyph unicode="&#xd2;" horiz-adv-x="1361" d="M57 594q0 209 76 361t246 292q178 146 356 146q95 0 182 -30.5t152 -86.5q114 -95 175 -236.5t61 -308.5q0 -158 -60.5 -297t-171.5 -244q-126 -115 -230 -171t-218 -56q-247 0 -407.5 175.5t-160.5 455.5zM225 727q0 -255 155.5 -421.5t383.5 -166.5q100 0 172.5 28 t95.5 69q82 145 82 348q0 289 -142 459.5t-374 170.5q-98 0 -171.5 -27t-98.5 -65q-44 -67 -73.5 -174t-29.5 -221zM446 1827h168l197 -330h-100z" />
<glyph unicode="&#xd3;" horiz-adv-x="1361" d="M57 594q0 209 76 361t246 292q178 146 356 146q95 0 182 -30.5t152 -86.5q114 -95 175 -236.5t61 -308.5q0 -158 -60.5 -297t-171.5 -244q-126 -115 -230 -171t-218 -56q-247 0 -407.5 175.5t-160.5 455.5zM225 727q0 -255 155.5 -421.5t383.5 -166.5q100 0 172.5 28 t95.5 69q82 145 82 348q0 289 -142 459.5t-374 170.5q-98 0 -171.5 -27t-98.5 -65q-44 -67 -73.5 -174t-29.5 -221zM551 1497l197 330h167l-264 -330h-100z" />
<glyph unicode="&#xd4;" horiz-adv-x="1361" d="M57 594q0 209 76 361t246 292q178 146 356 146q95 0 182 -30.5t152 -86.5q114 -95 175 -236.5t61 -308.5q0 -158 -60.5 -297t-171.5 -244q-126 -115 -230 -171t-218 -56q-247 0 -407.5 175.5t-160.5 455.5zM225 727q0 -255 155.5 -421.5t383.5 -166.5q100 0 172.5 28 t95.5 69q82 145 82 348q0 289 -142 459.5t-374 170.5q-98 0 -171.5 -27t-98.5 -65q-44 -67 -73.5 -174t-29.5 -221zM416 1538l213 274h102l215 -274l-131 -25l-135 195l-133 -195z" />
<glyph unicode="&#xd5;" horiz-adv-x="1361" d="M57 594q0 209 76 361t246 292q178 146 356 146q95 0 182 -30.5t152 -86.5q114 -95 175 -236.5t61 -308.5q0 -158 -60.5 -297t-171.5 -244q-126 -115 -230 -171t-218 -56q-247 0 -407.5 175.5t-160.5 455.5zM225 727q0 -255 155.5 -421.5t383.5 -166.5q100 0 172.5 28 t95.5 69q82 145 82 348q0 289 -142 459.5t-374 170.5q-98 0 -171.5 -27t-98.5 -65q-44 -67 -73.5 -174t-29.5 -221zM408 1552q41 177 184 177q28 0 57 -11l74 -24q37 -11 57 -11q67 0 92 66h82q-22 -85 -69.5 -132.5t-116.5 -47.5q-36 0 -61 10l-76 25q-27 10 -49 10 q-64 0 -93 -62h-81z" />
<glyph unicode="&#xd6;" horiz-adv-x="1361" d="M57 594q0 209 76 361t246 292q178 146 356 146q95 0 182 -30.5t152 -86.5q114 -95 175 -236.5t61 -308.5q0 -158 -60.5 -297t-171.5 -244q-126 -115 -230 -171t-218 -56q-247 0 -407.5 175.5t-160.5 455.5zM225 727q0 -255 155.5 -421.5t383.5 -166.5q100 0 172.5 28 t95.5 69q82 145 82 348q0 289 -142 459.5t-374 170.5q-98 0 -171.5 -27t-98.5 -65q-44 -67 -73.5 -174t-29.5 -221zM381 1647q61 52 119 118q44 -52 118 -118q-69 -66 -118 -119q-55 64 -119 119zM743 1647q63 57 117 118q46 -53 121 -118q-69 -62 -121 -119 q-52 60 -117 119z" />
<glyph unicode="&#xd7;" horiz-adv-x="1607" d="M276 133l441 442l-441 441l93 94l442 -442l440 442l95 -94l-443 -441l443 -442l-95 -90l-440 438l-442 -438z" />
<glyph unicode="&#xd8;" horiz-adv-x="1361" d="M57 594q0 235 115 428q100 169 258 270t305 101q186 0 336 -117l111 154h80l-142 -203q185 -197 185 -496q0 -144 -49.5 -274t-127.5 -211q-140 -145 -260.5 -214t-253.5 -69q-159 0 -305 98l-143 -204h-82l172 247q-199 178 -199 490zM227 719q0 -240 162 -422l549 784 q-139 133 -340 133q-98 0 -171.5 -27t-98.5 -65q-44 -69 -72.5 -176t-28.5 -227zM442 250q138 -111 326 -111q98 0 169.5 28t94.5 69q82 145 82 346q0 290 -131 446z" />
<glyph unicode="&#xd9;" horiz-adv-x="1218" d="M109 1358l231 8q-14 -333 -14 -846q0 -213 67.5 -305t245.5 -92q129 0 211 65q19 62 29 132t12 117.5t2 121.5v31q0 452 -12 768l231 8q-14 -293 -14 -684q0 -389 14 -682l-231 -10q8 120 10 160q-104 -96 -191.5 -141.5t-179.5 -45.5q-218 0 -309.5 126t-91.5 403v243 q0 325 -10 623zM375 1827h168l196 -330h-100z" />
<glyph unicode="&#xda;" horiz-adv-x="1218" d="M109 1358l231 8q-14 -333 -14 -846q0 -213 67.5 -305t245.5 -92q129 0 211 65q19 62 29 132t12 117.5t2 121.5v31q0 452 -12 768l231 8q-14 -293 -14 -684q0 -389 14 -682l-231 -10q8 120 10 160q-104 -96 -191.5 -141.5t-179.5 -45.5q-218 0 -309.5 126t-91.5 403v243 q0 325 -10 623zM479 1497l197 330h168l-264 -330h-101z" />
<glyph unicode="&#xdb;" horiz-adv-x="1218" d="M109 1358l231 8q-14 -333 -14 -846q0 -213 67.5 -305t245.5 -92q129 0 211 65q19 62 29 132t12 117.5t2 121.5v31q0 452 -12 768l231 8q-14 -293 -14 -684q0 -389 14 -682l-231 -10q8 120 10 160q-104 -96 -191.5 -141.5t-179.5 -45.5q-218 0 -309.5 126t-91.5 403v243 q0 325 -10 623zM344 1538l213 274h102l215 -274l-131 -25l-135 195l-133 -195z" />
<glyph unicode="&#xdc;" horiz-adv-x="1218" d="M109 1358l231 8q-14 -333 -14 -846q0 -213 67.5 -305t245.5 -92q129 0 211 65q19 62 29 132t12 117.5t2 121.5v31q0 452 -12 768l231 8q-14 -293 -14 -684q0 -389 14 -682l-231 -10q8 120 10 160q-104 -96 -191.5 -141.5t-179.5 -45.5q-218 0 -309.5 126t-91.5 403v243 q0 325 -10 623zM309 1647q61 52 119 118q41 -47 119 -118q-77 -72 -119 -119q-55 64 -119 119zM672 1647q59 52 116 118q46 -53 121 -118q-69 -62 -121 -119q-55 64 -116 119z" />
<glyph unicode="&#xdd;" horiz-adv-x="933" d="M0 1339l219 37q139 -341 301 -688q189 415 279 670l121 8q-158 -369 -355 -805v-117q0 -249 10 -444l-225 -10q10 283 10 483v88q-123 290 -360 778zM336 1497l196 330h168l-264 -330h-100z" />
<glyph unicode="&#xde;" horiz-adv-x="1009" d="M117 -10q12 322 12 686q0 362 -12 682l233 8q-2 -52 -6 -128.5t-4 -100.5q68 8 147 8q230 0 348.5 -90.5t118.5 -263.5q0 -126 -64.5 -223t-201.5 -185q-136 -90 -264 -90q-52 0 -86 6q0 -57 12 -299zM336 432q79 -16 158 -16q114 0 184 33q70 128 70 260 q0 142 -100 227.5t-275 85.5q-6 0 -18.5 -1t-18.5 -1v-588z" />
<glyph unicode="&#xdf;" horiz-adv-x="1005" d="M51 805l51 84h66q3 170 55 258q44 73 101 119q154 127 225 127q104 0 185 -81.5t81 -201.5q0 -136 -143 -285q125 -29 191.5 -114t66.5 -215q0 -115 -42.5 -224.5t-78.5 -138.5q-107 -80 -199.5 -125t-128.5 -45q-18 0 -67 6l41 133q90 -22 147 -22q5 0 13 1t12 1 q116 131 116 313q0 153 -65 239.5t-172 86.5q-26 0 -68 -10l-16 49q192 71 256 155q10 45 10 78q0 119 -77.5 199t-184.5 80q-50 0 -62 -74.5t-12 -298.5q0 -341 8 -899l-196 -10q4 204 4 680v135h-117z" />
<glyph unicode="&#xe0;" horiz-adv-x="839" d="M53 215q0 136 114.5 228t295.5 92q45 0 102 -13q0 10 1 28.5t1 27.5q0 109 -53 157.5t-174 48.5q-140 0 -238 -79l-22 20l170 180q108 19 166 19q171 0 253.5 -79t82.5 -239q0 -11 -4.5 -212.5t-4.5 -393.5l-184 -10l6 108q-38 -20 -86 -45.5t-73 -39t-51 -26.5 t-39.5 -18.5t-20.5 -5.5q-91 0 -166.5 73.5t-75.5 178.5zM221 328q0 -91 60 -151t153 -60q60 0 131 26v263q-118 43 -207 43q-58 0 -108 -21q-29 -45 -29 -100zM231 1358h168l197 -330h-100z" />
<glyph unicode="&#xe1;" horiz-adv-x="839" d="M53 215q0 136 114.5 228t295.5 92q45 0 102 -13q0 10 1 28.5t1 27.5q0 109 -53 157.5t-174 48.5q-140 0 -238 -79l-22 20l170 180q108 19 166 19q171 0 253.5 -79t82.5 -239q0 -11 -4.5 -212.5t-4.5 -393.5l-184 -10l6 108q-38 -20 -86 -45.5t-73 -39t-51 -26.5 t-39.5 -18.5t-20.5 -5.5q-91 0 -166.5 73.5t-75.5 178.5zM221 328q0 -91 60 -151t153 -60q60 0 131 26v263q-118 43 -207 43q-58 0 -108 -21q-29 -45 -29 -100zM336 1028l196 330h168l-264 -330h-100z" />
<glyph unicode="&#xe2;" horiz-adv-x="839" d="M53 215q0 136 114.5 228t295.5 92q45 0 102 -13q0 10 1 28.5t1 27.5q0 109 -53 157.5t-174 48.5q-140 0 -238 -79l-22 20l170 180q108 19 166 19q171 0 253.5 -79t82.5 -239q0 -11 -4.5 -212.5t-4.5 -393.5l-184 -10l6 108q-38 -20 -86 -45.5t-73 -39t-51 -26.5 t-39.5 -18.5t-20.5 -5.5q-91 0 -166.5 73.5t-75.5 178.5zM201 1069l213 274h102l215 -274l-131 -25l-135 195l-133 -195zM221 328q0 -91 60 -151t153 -60q60 0 131 26v263q-118 43 -207 43q-58 0 -108 -21q-29 -45 -29 -100z" />
<glyph unicode="&#xe3;" horiz-adv-x="839" d="M53 215q0 136 114.5 228t295.5 92q45 0 102 -13q0 10 1 28.5t1 27.5q0 109 -53 157.5t-174 48.5q-140 0 -238 -79l-22 20l170 180q108 19 166 19q171 0 253.5 -79t82.5 -239q0 -11 -4.5 -212.5t-4.5 -393.5l-184 -10l6 108q-38 -20 -86 -45.5t-73 -39t-51 -26.5 t-39.5 -18.5t-20.5 -5.5q-91 0 -166.5 73.5t-75.5 178.5zM193 1083q41 177 184 177q28 0 57 -11l74 -24q37 -11 57 -11q67 0 92 66h82q-22 -85 -69.5 -132.5t-116.5 -47.5q-36 0 -61 10l-76 25q-27 10 -49 10q-64 0 -93 -62h-81zM221 328q0 -91 60 -151t153 -60q60 0 131 26 v263q-118 43 -207 43q-58 0 -108 -21q-29 -45 -29 -100z" />
<glyph unicode="&#xe4;" horiz-adv-x="839" d="M53 215q0 136 114.5 228t295.5 92q45 0 102 -13q0 10 1 28.5t1 27.5q0 109 -53 157.5t-174 48.5q-140 0 -238 -79l-22 20l170 180q108 19 166 19q171 0 253.5 -79t82.5 -239q0 -11 -4.5 -212.5t-4.5 -393.5l-184 -10l6 108q-38 -20 -86 -45.5t-73 -39t-51 -26.5 t-39.5 -18.5t-20.5 -5.5q-91 0 -166.5 73.5t-75.5 178.5zM166 1178q61 52 119 118q44 -52 118 -118q-69 -66 -118 -119q-55 64 -119 119zM221 328q0 -91 60 -151t153 -60q60 0 131 26v263q-118 43 -207 43q-58 0 -108 -21q-29 -45 -29 -100zM528 1178q63 57 117 118 q46 -53 121 -118q-69 -62 -121 -119q-52 60 -117 119z" />
<glyph unicode="&#xe5;" horiz-adv-x="839" d="M53 215q0 136 114.5 228t295.5 92q45 0 102 -13q0 10 1 28.5t1 27.5q0 109 -53 157.5t-174 48.5q-140 0 -238 -79l-22 20l170 180q108 19 166 19q171 0 253.5 -79t82.5 -239q0 -11 -4.5 -212.5t-4.5 -393.5l-184 -10l6 108q-60 -29 -126 -66t-97.5 -53t-46.5 -16 q-91 0 -166.5 73.5t-75.5 178.5zM221 328q0 -91 60 -151t153 -60q60 0 131 26v263q-118 43 -207 43q-58 0 -108 -21q-29 -45 -29 -100zM287 1155q0 75 53 137t127 62q54 0 89.5 -40.5t35.5 -101.5q0 -79 -54 -137.5t-128 -58.5q-54 0 -88.5 42.5t-34.5 96.5zM365 1188 q0 -40 29 -68t67 -28q21 0 41 10q10 40 10 72q0 46 -27.5 76t-64.5 30q-17 0 -27 -2q-28 -54 -28 -90z" />
<glyph unicode="&#xe6;" horiz-adv-x="1316" d="M53 215q0 136 114.5 228t295.5 92q45 0 102 -13q0 10 1 28.5t1 27.5q0 109 -53 157.5t-174 48.5q-140 0 -238 -79l-22 20l170 180q108 19 166 19q217 0 297 -136q189 136 291 136q114 0 193 -98t79 -259v-24l-189 -92h-339q15 -164 113.5 -256.5t256.5 -92.5q78 0 148 33 l14 -22q-145 -96 -189 -118q-65 -32 -118 -32q-227 0 -330 176q-287 -155 -328 -171q-14 -5 -20 -5q-91 0 -166.5 73.5t-75.5 178.5zM221 328q0 -91 60 -151t153 -60q78 0 191 49q-47 100 -47 233q-123 50 -220 50q-58 0 -108 -21q-29 -45 -29 -100zM743 537h340v10 q0 118 -57 187t-149 69q-34 0 -64 -12q-70 -95 -70 -254z" />
<glyph unicode="&#xe7;" horiz-adv-x="784" d="M45 383q0 99 28 180.5t83 181.5q21 32 34 37l220 123q34 19 96 19q80 0 143.5 -54t98.5 -155l-175 -90q-75 174 -208 174q-23 0 -64 -13q-78 -135 -78 -288q0 -182 96 -292t246 -110q66 0 172 39l11 -20q-116 -81 -179.5 -116t-113.5 -36l-15 -49h23q76 0 115.5 -31 t39.5 -88q0 -92 -86 -148t-247 -55v56q117 7 175 49t58 98q0 43 -45 43q-43 0 -117 -20l43 149q-158 17 -256 130.5t-98 285.5z" />
<glyph unicode="&#xe8;" horiz-adv-x="784" d="M45 401q0 133 38 237.5t91 145.5q84 68 165.5 104t133.5 36q114 0 192 -98t78 -259v-24l-188 -92h-338q15 -164 113 -256.5t256 -92.5q79 0 149 33l13 -22q-10 -7 -38 -25.5t-37 -24.5t-32.5 -21t-33 -20.5t-29 -16.5t-29.5 -15t-26.5 -11t-28 -9.5t-25.5 -4.5t-27 -2 q-182 0 -289.5 118.5t-107.5 319.5zM199 1358h168l196 -330h-100zM213 537h338v10q0 118 -56.5 187t-148.5 69q-35 0 -65 -12q-68 -92 -68 -254z" />
<glyph unicode="&#xe9;" horiz-adv-x="784" d="M45 401q0 133 38 237.5t91 145.5q84 68 165.5 104t133.5 36q114 0 192 -98t78 -259v-24l-188 -92h-338q15 -164 113 -256.5t256 -92.5q79 0 149 33l13 -22q-10 -7 -38 -25.5t-37 -24.5t-32.5 -21t-33 -20.5t-29 -16.5t-29.5 -15t-26.5 -11t-28 -9.5t-25.5 -4.5t-27 -2 q-182 0 -289.5 118.5t-107.5 319.5zM213 537h338v10q0 118 -56.5 187t-148.5 69q-35 0 -65 -12q-68 -92 -68 -254zM303 1028l197 330h168l-265 -330h-100z" />
<glyph unicode="&#xea;" horiz-adv-x="784" d="M45 401q0 133 38 237.5t91 145.5q84 68 165.5 104t133.5 36q114 0 192 -98t78 -259v-24l-188 -92h-338q15 -164 113 -256.5t256 -92.5q79 0 149 33l13 -22q-10 -7 -38 -25.5t-37 -24.5t-32.5 -21t-33 -20.5t-29 -16.5t-29.5 -15t-26.5 -11t-28 -9.5t-25.5 -4.5t-27 -2 q-182 0 -289.5 118.5t-107.5 319.5zM168 1069l213 274h102l215 -274l-131 -25l-135 195l-133 -195zM213 537h338v10q0 118 -56.5 187t-148.5 69q-35 0 -65 -12q-68 -92 -68 -254z" />
<glyph unicode="&#xeb;" horiz-adv-x="784" d="M45 401q0 133 38 237.5t91 145.5q84 68 165.5 104t133.5 36q114 0 192 -98t78 -259v-24l-188 -92h-338q15 -164 113 -256.5t256 -92.5q79 0 149 33l13 -22q-10 -7 -38 -25.5t-37 -24.5t-32.5 -21t-33 -20.5t-29 -16.5t-29.5 -15t-26.5 -11t-28 -9.5t-25.5 -4.5t-27 -2 q-182 0 -289.5 118.5t-107.5 319.5zM133 1178q61 52 119 118q41 -47 119 -118q-77 -72 -119 -119q-55 64 -119 119zM213 537h338v10q0 118 -56.5 187t-148.5 69q-35 0 -65 -12q-68 -92 -68 -254zM496 1178q59 52 116 118q46 -53 121 -118q-69 -62 -121 -119q-55 64 -116 119 z" />
<glyph unicode="&#xec;" horiz-adv-x="382" d="M-41 1358h168l197 -330h-101zM94 -10q4 164 4 450q0 285 -4 449l195 8q-4 -150 -4 -448q0 -299 4 -449z" />
<glyph unicode="&#xed;" horiz-adv-x="382" d="M63 1028l197 330h168l-264 -330h-101zM94 -10q4 164 4 450q0 285 -4 449l195 8q-4 -150 -4 -448q0 -299 4 -449z" />
<glyph unicode="&#xee;" horiz-adv-x="382" d="M-72 1069l213 274h103l215 -274l-131 -25l-135 195l-134 -195zM94 -10q4 164 4 450q0 285 -4 449l195 8q-4 -150 -4 -448q0 -299 4 -449z" />
<glyph unicode="&#xef;" horiz-adv-x="382" d="M-106 1178q58 49 118 118q41 -47 119 -118q-77 -72 -119 -119q-58 67 -118 119zM94 -10q4 164 4 450q0 285 -4 449l195 8q-4 -150 -4 -448q0 -299 4 -449zM256 1178q63 57 117 118q46 -53 121 -118q-69 -62 -121 -119q-52 60 -117 119z" />
<glyph unicode="&#xf0;" horiz-adv-x="907" d="M45 367q0 162 88 342l240 188q28 21 94 21q61 0 129 -25q-113 133 -213 217l-168 -123l-37 45l156 115q-90 74 -160 119l143 127q57 -36 170 -129l156 114l39 -45l-154 -112q334 -328 334 -670q0 -191 -96 -375l-219 -178q-51 -35 -131 -35q-167 0 -269 110t-102 294z M217 483q0 -176 82.5 -271t232.5 -95q60 0 105 26q49 90 49 273q0 175 -73.5 273.5t-196.5 98.5q-65 0 -121 -22q-78 -78 -78 -283z" />
<glyph unicode="&#xf1;" horiz-adv-x="903" d="M84 -10q4 164 4 450q0 285 -4 449l195 8q0 -36 -1.5 -77t-1.5 -46q123 92 240 146q36 4 49 4q113 0 197 -84q35 -35 44 -87t9 -151v-24q0 -63 -1 -127.5t-1 -65.5q0 -9 4 -385l-192 -10q4 127 4 491q0 109 -6.5 160.5t-30.5 75.5q-58 61 -162 61q-46 0 -68.5 -6.5 t-35.5 -28.5q-36 -64 -45 -156.5t-9 -271.5q0 -93 7 -315zM178 1083q41 177 184 177q29 0 58 -11l74 -24q37 -11 57 -11q67 0 92 66h82q-22 -85 -69.5 -132.5t-116.5 -47.5q-37 0 -62 10l-76 25q-27 10 -49 10q-63 0 -92 -62h-82z" />
<glyph unicode="&#xf2;" horiz-adv-x="907" d="M45 367q0 162 88 342l240 188q11 8 48 17.5t87 9.5q166 0 260 -101t94 -282q0 -186 -96 -365l-219 -178q-51 -35 -131 -35q-167 0 -269 110t-102 294zM217 483q0 -176 82.5 -271t232.5 -95q60 0 105 26q49 90 49 273q0 175 -73.5 273.5t-196.5 98.5q-65 0 -121 -22 q-78 -78 -78 -283zM258 1358h168l197 -330h-101z" />
<glyph unicode="&#xf3;" horiz-adv-x="907" d="M45 367q0 162 88 342l240 188q11 8 48 17.5t87 9.5q166 0 260 -101t94 -282q0 -186 -96 -365l-219 -178q-51 -35 -131 -35q-167 0 -269 110t-102 294zM217 483q0 -176 82.5 -271t232.5 -95q60 0 105 26q49 90 49 273q0 175 -73.5 273.5t-196.5 98.5q-65 0 -121 -22 q-78 -78 -78 -283zM362 1028l197 330h168l-264 -330h-101z" />
<glyph unicode="&#xf4;" horiz-adv-x="907" d="M45 367q0 162 88 342l240 188q11 8 48 17.5t87 9.5q166 0 260 -101t94 -282q0 -186 -96 -365l-219 -178q-51 -35 -131 -35q-167 0 -269 110t-102 294zM217 483q0 -176 82.5 -271t232.5 -95q60 0 105 26q49 90 49 273q0 175 -73.5 273.5t-196.5 98.5q-65 0 -121 -22 q-78 -78 -78 -283zM227 1069l213 274h103l215 -274l-131 -25l-135 195l-134 -195z" />
<glyph unicode="&#xf5;" horiz-adv-x="907" d="M45 367q0 162 88 342l240 188q11 8 48 17.5t87 9.5q166 0 260 -101t94 -282q0 -186 -96 -365l-219 -178q-51 -35 -131 -35q-167 0 -269 110t-102 294zM217 483q0 -176 82.5 -271t232.5 -95q60 0 105 26q49 90 49 273q0 175 -73.5 273.5t-196.5 98.5q-65 0 -121 -22 q-78 -78 -78 -283zM219 1083q41 177 184 177q29 0 58 -11l74 -24q37 -11 57 -11q67 0 92 66h82q-22 -85 -69.5 -132.5t-116.5 -47.5q-37 0 -62 10l-76 25q-27 10 -49 10q-63 0 -92 -62h-82z" />
<glyph unicode="&#xf6;" horiz-adv-x="907" d="M45 367q0 162 88 342l240 188q11 8 48 17.5t87 9.5q166 0 260 -101t94 -282q0 -186 -96 -365l-219 -178q-51 -35 -131 -35q-167 0 -269 110t-102 294zM193 1178q58 49 118 118q41 -47 119 -118q-77 -72 -119 -119q-58 67 -118 119zM217 483q0 -176 82.5 -271t232.5 -95 q60 0 105 26q49 90 49 273q0 175 -73.5 273.5t-196.5 98.5q-65 0 -121 -22q-78 -78 -78 -283zM555 1178q63 57 117 118q46 -53 121 -118q-69 -62 -121 -119q-52 60 -117 119z" />
<glyph unicode="&#xf7;" horiz-adv-x="1607" d="M240 510v131h1128v-131h-1128zM686 227q0 49 35.5 84t83.5 35t82.5 -35t34.5 -84q0 -48 -34 -82t-83 -34q-51 0 -85 33t-34 83zM686 922q0 49 35.5 84.5t83.5 35.5q47 0 82 -35.5t35 -84.5q0 -48 -34 -82.5t-83 -34.5q-50 0 -84.5 34t-34.5 83z" />
<glyph unicode="&#xf8;" horiz-adv-x="907" d="M35 -98l121 166q-111 102 -111 299q0 162 88 342l240 188q11 8 48 17.5t87 9.5q133 0 221 -68l86 119h66l-111 -154q92 -102 92 -280t-96 -365l-219 -178q-51 -35 -131 -35q-115 0 -221 68l-93 -129h-67zM217 487q0 -163 64 -247l331 454q-85 94 -196 94q-65 0 -121 -22 q-78 -78 -78 -279zM315 197q90 -80 217 -80q60 0 105 26q49 86 49 273q0 130 -47 227z" />
<glyph unicode="&#xf9;" horiz-adv-x="903" d="M84 889l195 8q-7 -212 -7 -494q0 -102 7 -154.5t30 -76.5q61 -61 164 -61q45 0 67 7t35 29q36 64 46 159t10 269q0 135 -6 314l192 8q-4 -300 -4 -448q0 -149 4 -449l-192 -10q0 59 2 127q-128 -96 -244 -148q-14 -2 -41 -2q-131 0 -192.5 70.5t-61.5 218.5v246 q0 207 -4 387zM217 1358h168l197 -330h-101z" />
<glyph unicode="&#xfa;" horiz-adv-x="903" d="M84 889l195 8q-7 -212 -7 -494q0 -102 7 -154.5t30 -76.5q61 -61 164 -61q45 0 67 7t35 29q36 64 46 159t10 269q0 135 -6 314l192 8q-4 -300 -4 -448q0 -149 4 -449l-192 -10q0 59 2 127q-128 -96 -244 -148q-14 -2 -41 -2q-131 0 -192.5 70.5t-61.5 218.5v246 q0 207 -4 387zM322 1028l196 330h168l-264 -330h-100z" />
<glyph unicode="&#xfb;" horiz-adv-x="903" d="M84 889l195 8q-7 -212 -7 -494q0 -102 7 -154.5t30 -76.5q61 -61 164 -61q45 0 67 7t35 29q36 64 46 159t10 269q0 135 -6 314l192 8q-4 -300 -4 -448q0 -149 4 -449l-192 -10q0 59 2 127q-128 -96 -244 -148q-14 -2 -41 -2q-131 0 -192.5 70.5t-61.5 218.5v246 q0 207 -4 387zM186 1069l213 274h103l215 -274l-131 -25l-135 195l-134 -195z" />
<glyph unicode="&#xfc;" horiz-adv-x="903" d="M84 889l195 8q-7 -212 -7 -494q0 -102 7 -154.5t30 -76.5q61 -61 164 -61q45 0 67 7t35 29q36 64 46 159t10 269q0 135 -6 314l192 8q-4 -300 -4 -448q0 -149 4 -449l-192 -10q0 59 2 127q-128 -96 -244 -148q-14 -2 -41 -2q-131 0 -192.5 70.5t-61.5 218.5v246 q0 207 -4 387zM152 1178q58 49 118 118q41 -47 119 -118q-77 -72 -119 -119q-58 67 -118 119zM514 1178q63 57 117 118q46 -53 121 -118q-69 -62 -121 -119q-52 60 -117 119z" />
<glyph unicode="&#xfd;" horiz-adv-x="839" d="M0 897l205 27q154 -449 272 -701l240 666l121 18q-262 -629 -521 -1353l-137 -9q79 167 125 273l70 159q-208 534 -375 920zM291 1028l196 330h168l-264 -330h-100z" />
<glyph unicode="&#xfe;" horiz-adv-x="892" d="M84 -455q4 176 4 906q0 731 -4 907l199 8q-4 -175 -7 -575l211 129q14 4 39 4q127 0 224.5 -112.5t97.5 -283.5q0 -121 -37.5 -221t-116.5 -203q-18 -28 -119 -81q-111 -60 -145 -60q-40 0 -158 31q0 -83 7 -440zM270 350q0 -56 4 -200q139 -74 246 -74q19 0 55 8 q80 154 80 362q0 161 -69.5 256t-177.5 95q-23 0 -50 -6q-50 -53 -69 -157t-19 -284z" />
<glyph unicode="&#xff;" horiz-adv-x="839" d="M0 897l205 27q154 -449 272 -701l240 666l121 18q-262 -629 -521 -1353l-137 -9q79 167 125 273l70 159q-208 534 -375 920zM121 1178q61 52 119 118q44 -52 118 -118q-69 -66 -118 -119q-55 64 -119 119zM483 1178q63 57 117 118q46 -53 121 -118q-69 -62 -121 -119 q-52 60 -117 119z" />
<glyph unicode="&#x152;" horiz-adv-x="1861" d="M57 594q0 203 78.5 362t243.5 291q181 146 356 146q220 0 367 -185l-12 150q431 0 679 8l-63 -137q-63 8 -223 8h-174q-4 -23 -4 -119v-137v-227h94q204 0 360 6l-63 -131q-95 6 -164 6h-227v-211v-150q0 -114 4 -145q39 -2 104 -2h94q197 0 277 10l-66 -147 q-170 10 -452 10h-183l19 217q-245 -254 -477 -254q-247 0 -407.5 175.5t-160.5 455.5zM225 727q0 -255 155.5 -421.5t383.5 -166.5q100 0 173 27.5t97 69.5q84 150 84 391q0 282 -128.5 439t-350.5 157q-97 0 -178.5 -24.5t-110.5 -51.5q-42 -37 -83.5 -158t-41.5 -262z " />
<glyph unicode="&#x153;" horiz-adv-x="1423" d="M45 367q0 162 88 342l240 188q11 8 48 17.5t87 9.5q197 0 295 -146q194 146 307 146q114 0 192 -98t78 -259v-24l-186 -92h-342q17 -164 116 -256.5t257 -92.5q77 0 147 33l12 -22q-11 -7 -42 -27.5t-41 -27t-35 -23t-35.5 -22t-31 -16.5t-32.5 -15l-28.5 -9.5t-31 -7.5 t-28.5 -2q-228 0 -342 191l-190 -156q-47 -35 -131 -35q-167 0 -269 110t-102 294zM217 483q0 -176 82.5 -271t232.5 -95q60 0 105 26q49 90 49 273q0 175 -73.5 273.5t-196.5 98.5q-65 0 -121 -22q-78 -78 -78 -283zM850 537h340v10q0 118 -57.5 187t-151.5 69 q-29 0 -63 -12q-68 -96 -68 -254z" />
<glyph unicode="&#x178;" horiz-adv-x="933" d="M0 1339l219 37q139 -341 301 -688q189 415 279 670l121 8q-158 -369 -355 -805v-117q0 -249 10 -444l-225 -10q10 283 10 483v88q-123 290 -360 778zM166 1647q61 52 119 118q44 -52 118 -118q-69 -66 -118 -119q-55 64 -119 119zM528 1647q63 57 117 118 q46 -53 121 -118q-69 -62 -121 -119q-52 60 -117 119z" />
<glyph unicode="&#x2c6;" horiz-adv-x="964" d="M217 1069l213 274h102l216 -274l-132 -25l-135 195l-133 -195z" />
<glyph unicode="&#x2dc;" horiz-adv-x="964" d="M209 1083q41 177 184 177q29 0 58 -11l73 -24q37 -11 58 -11q67 0 92 66h82q-22 -85 -70 -132.5t-117 -47.5q-36 0 -61 10l-76 25q-27 10 -49 10q-63 0 -92 -62h-82z" />
<glyph unicode="&#x2000;" horiz-adv-x="913" />
<glyph unicode="&#x2001;" horiz-adv-x="1827" />
<glyph unicode="&#x2002;" horiz-adv-x="913" />
<glyph unicode="&#x2003;" horiz-adv-x="1827" />
<glyph unicode="&#x2004;" horiz-adv-x="609" />
<glyph unicode="&#x2005;" horiz-adv-x="456" />
<glyph unicode="&#x2006;" horiz-adv-x="304" />
<glyph unicode="&#x2007;" horiz-adv-x="304" />
<glyph unicode="&#x2008;" horiz-adv-x="228" />
<glyph unicode="&#x2009;" horiz-adv-x="365" />
<glyph unicode="&#x200a;" horiz-adv-x="101" />
<glyph unicode="&#x2010;" horiz-adv-x="473" d="M41 385l53 135h340l-53 -135h-340z" />
<glyph unicode="&#x2011;" horiz-adv-x="473" d="M41 385l53 135h340l-53 -135h-340z" />
<glyph unicode="&#x2012;" horiz-adv-x="473" d="M41 385l53 135h340l-53 -135h-340z" />
<glyph unicode="&#x2013;" horiz-adv-x="964" d="M0 393v117h965v-117h-965z" />
<glyph unicode="&#x2014;" horiz-adv-x="1929" d="M0 393v117h1929v-117h-1929z" />
<glyph unicode="&#x2018;" horiz-adv-x="522" d="M143 1087q0 58 45.5 130.5t141.5 175.5l26 -23q-75 -93 -75 -156q0 -43 26.5 -78.5t85.5 -78.5l-123 -150q-127 78 -127 180z" />
<glyph unicode="&#x2019;" horiz-adv-x="522" d="M127 1243l123 150q129 -79 129 -183q0 -58 -46 -130t-143 -175l-24 23q78 93 78 155q0 42 -28 78t-89 82z" />
<glyph unicode="&#x201a;" horiz-adv-x="522" d="M127 78l123 151q129 -79 129 -182q0 -58 -46 -130t-143 -175l-24 22q78 97 78 156q0 42 -27.5 77t-89.5 81z" />
<glyph unicode="&#x201c;" horiz-adv-x="866" d="M143 1087q0 58 45.5 130.5t141.5 175.5l26 -23q-75 -93 -75 -156q0 -43 26.5 -78.5t85.5 -78.5l-123 -150q-127 78 -127 180zM487 1087q0 58 46 130.5t143 175.5l24 -23q-77 -92 -77 -156q0 -43 28 -78t88 -79l-125 -150q-127 80 -127 180z" />
<glyph unicode="&#x201d;" horiz-adv-x="866" d="M127 1243l123 150q129 -79 129 -183q0 -58 -46 -130t-143 -175l-24 23q78 93 78 155q0 42 -28 78t-89 82zM473 1243l123 150q127 -78 127 -183q0 -58 -45.5 -130t-140.5 -175l-27 23q76 95 76 155q0 43 -26.5 79t-86.5 81z" />
<glyph unicode="&#x201e;" horiz-adv-x="866" d="M127 78l123 151q129 -79 129 -182q0 -58 -46 -130t-143 -175l-24 22q78 97 78 156q0 42 -27.5 77t-89.5 81zM473 78l123 151q127 -78 127 -182q0 -58 -45.5 -130t-140.5 -175l-27 22q76 99 76 156q0 42 -26.5 77.5t-86.5 80.5z" />
<glyph unicode="&#x2022;" horiz-adv-x="1138" d="M289 717q0 116 82 197t198 81q115 0 197 -81t82 -197q0 -114 -83 -196.5t-198 -82.5t-196.5 81.5t-81.5 197.5z" />
<glyph unicode="&#x2026;" horiz-adv-x="1929" d="M188 96q68 56 131 133q46 -53 134 -133q-98 -94 -134 -133q-57 65 -131 133zM831 96q59 50 132 133q62 -71 133 -133q-69 -64 -133 -133q-69 75 -132 133zM1477 96q63 55 131 133q51 -61 133 -133q-84 -77 -133 -133q-57 62 -131 133z" />
<glyph unicode="&#x202f;" horiz-adv-x="365" />
<glyph unicode="&#x2039;" horiz-adv-x="526" d="M70 395l338 391l38 -32l-229 -291l232 -258l-113 -103z" />
<glyph unicode="&#x203a;" horiz-adv-x="526" d="M76 682l112 104l267 -292l-338 -392l-39 31l229 293z" />
<glyph unicode="&#x205f;" horiz-adv-x="456" />
<glyph unicode="&#x20ac;" horiz-adv-x="1280" d="M12 549l78 117h111q3 53 12 106h-201l78 117h158q81 207 278 346q112 80 205.5 119t196.5 39q162 0 305 -93l-137 -163q-137 86 -312 86q-90 0 -159 -17.5t-97 -40.5q-112 -89 -151 -276h608l-70 -117h-553v-37q0 -35 3 -69h514l-70 -117h-422q52 -187 200.5 -296.5 t358.5 -109.5q168 0 293 93l29 -37q-25 -18 -75.5 -55t-72 -52.5t-61.5 -42t-63.5 -37.5t-57 -25t-63.5 -19t-62 -5q-267 0 -431 158t-181 428h-189z" />
<glyph unicode="&#x2122;" horiz-adv-x="1607" d="M227 1298v76h426v-76h-161v-432h-103v432h-162zM766 866v508h141l142 -362l133 362h141v-508h-92v418l-156 -418h-53l-164 418v-418h-92z" />
<glyph unicode="&#x25fc;" horiz-adv-x="921" d="M0 0v922h922v-922h-922z" />
</font>
</defs>
</svg>
