<?xml version="1.0" standalone="no"?>
<!DOCTYPE svg PUBLIC "-//W3C//DTD SVG 1.1//EN" "http://www.w3.org/Graphics/SVG/1.1/DTD/svg11.dtd" >
<svg xmlns="http://www.w3.org/2000/svg" xmlns:xlink="http://www.w3.org/1999/xlink" version="1.1">
<metadata>
Created by FontForge 20200427 at Wed Jan  3 06:19:32 2018
 By www
Copyright (c) Laurenz Brunner. www.lineto.com, 2004. All rights reserved.
</metadata>
<defs>
<font id="AkkuratPro-Regular" horiz-adv-x="560" >
  <font-face 
    font-family="Akkurat Pro"
    font-weight="400"
    font-stretch="normal"
    units-per-em="1000"
    panose-1="2 0 5 3 3 0 0 2 0 4"
    ascent="783"
    descent="-217"
    x-height="506"
    cap-height="709"
    bbox="-81 -289 1125 930"
    underline-thickness="45"
    underline-position="-93"
    unicode-range="U+0020-FB02"
  />
<missing-glyph horiz-adv-x="588" 
d="M88 0v698h412v-698h-412zM163 74h262v549h-262v-549z" />
    <glyph glyph-name=".notdef" horiz-adv-x="588" 
d="M88 0v698h412v-698h-412zM163 74h262v549h-262v-549z" />
    <glyph glyph-name=".null" horiz-adv-x="0" 
 />
    <glyph glyph-name="nonmarkingreturn" horiz-adv-x="333" 
 />
    <glyph glyph-name="space" unicode=" " horiz-adv-x="230" 
 />
    <glyph glyph-name="exclam" unicode="!" horiz-adv-x="331" 
d="M232 485l-21 -270h-58l-23 270v224h102v-224zM236 0h-106v109h106v-109z" />
    <glyph glyph-name="quotedbl" unicode="&#x22;" horiz-adv-x="444" 
d="M354 586l-21 -153h-53l-21 153v123h95v-123zM185 586l-21 -153h-53l-21 153v123h95v-123z" />
    <glyph glyph-name="numbersign" unicode="#" horiz-adv-x="752" 
d="M682 428h-136l-22 -161h125v-77h-136l-26 -189h-78l26 189h-153l-27 -189h-78l26 189h-128v77h139l22 161h-128v78h139l26 189h78l-26 -189h153l27 189h78l-26 -189h125v-78zM468 428h-154l-22 -161h153z" />
    <glyph glyph-name="dollar" unicode="$" 
d="M536 204q0 -77 -58 -135q-60 -58 -160 -68v-91h-58v91q-96 8 -159 65q-71 65 -71 162h88q0 -65 47 -107q37 -34 95 -42v243q-23 4 -37 5q-77 9 -126 57t-49 123q0 78 59 134q62 59 153 67v92h58v-93q87 -9 143 -64q63 -62 66 -145h-89q-3 56 -36 90q-33 35 -84 42v-228
l30 -4q85 -11 136.5 -60.5t51.5 -133.5zM260 408v223q-61 -7 -96 -44q-28 -31 -28 -78q0 -43 26 -67t69 -30zM448 202q0 47 -31 76t-83 35l-16 2v-236q59 6 94 40q36 34 36 83z" />
    <glyph glyph-name="percent" unicode="%" horiz-adv-x="919" 
d="M854 178q0 -75 -31 -121q-48 -70 -132 -70t-132 70q-31 46 -31 121q0 76 31 122q48 70 132 70t132 -70q31 -46 31 -122zM746 685l-516 -706l-54 41l515 704zM386 531q0 -75 -31 -121q-48 -70 -132 -70t-132 70q-31 46 -31 121q0 76 31 122q48 70 132 70t132 -70
q31 -46 31 -122zM777 178q0 71 -29 101q-22 24 -57 24q-36 0 -58 -24q-29 -30 -29 -101q0 -70 29 -100q22 -24 58 -24q35 0 57 24q29 30 29 100zM309 531q0 71 -29 101q-22 24 -57 24q-36 0 -58 -24q-29 -30 -29 -101q0 -70 29 -100q22 -24 58 -24q35 0 57 24q29 30 29 100z
" />
    <glyph glyph-name="ampersand" unicode="&#x26;" horiz-adv-x="737" 
d="M675 332h-73q0 -53 -13 -108.5t-36 -88.5l121 -135h-108l-61 69q-72 -82 -202 -82q-94 0 -158 56t-64 149q0 55 26.5 101t73.5 76l35 22q-30 34 -43.5 51t-27 48.5t-13.5 66.5q0 73 50.5 119t128.5 46q80 0 130.5 -45.5t50.5 -122.5q0 -102 -91 -157q-9 -5 -25.5 -16
t-25.5 -16l147 -166q5 9 9 21.5t6.5 23t4.5 28t3 26.5t1.5 30t0.5 26.5v27.5v23h153v-73zM451 130l-183 204l-41 -26q-61 -41 -61 -114q0 -56 38 -92t94 -36q103 0 153 64zM409 553q0 45 -26.5 71t-73.5 26q-42 0 -68 -25.5t-26 -66.5q0 -16 4 -31t15 -31t17 -24t24 -26.5
t21 -22.5q1 0 18 9.5t19 11t16.5 10t17 12t13 12.5t13 15.5t8 16.5t7 20.5t1.5 22.5z" />
    <glyph glyph-name="quotesingle" unicode="'" horiz-adv-x="265" 
d="M180 586l-21 -153h-53l-21 153v123h95v-123z" />
    <glyph glyph-name="parenleft" unicode="(" horiz-adv-x="303" 
d="M288 -105l-53 -37q-80 90 -124 215t-44 249t44 249t124 215l53 -37q-147 -194 -147 -427t147 -427z" />
    <glyph glyph-name="parenright" unicode=")" horiz-adv-x="303" 
d="M236 322q0 -124 -44 -249t-124 -215l-53 37q147 194 147 427t-147 427l53 37q80 -90 124 -215t44 -249z" />
    <glyph glyph-name="asterisk" unicode="*" horiz-adv-x="533" 
d="M478 512l-159 -41l104 -129l-67 -48l-90 139l-89 -139l-67 50l104 127l-159 41l26 79l153 -60l-8 165h83l-10 -165l154 60z" />
    <glyph glyph-name="plus" unicode="+" horiz-adv-x="681" 
d="M616 268h-241v-263h-70v263h-240v69h240v247h70v-247h241v-69z" />
    <glyph glyph-name="comma" unicode="," horiz-adv-x="294" 
d="M209 -1q0 -58 -22.5 -96.5t-75.5 -60.5l-26 47q38 17 51 41t13 69h-62v117h122v-117z" />
    <glyph glyph-name="hyphen" unicode="-" horiz-adv-x="437" 
d="M367 262h-297v79h297v-79z" />
    <glyph glyph-name="period" unicode="." horiz-adv-x="294" 
d="M206 0h-118v119h118v-119z" />
    <glyph glyph-name="slash" unicode="/" horiz-adv-x="399" 
d="M393 722l-308 -735h-68l308 735h68z" />
    <glyph glyph-name="zero" unicode="0" 
d="M512 348q0 -112 -16.5 -182t-65.5 -120q-59 -59 -150 -59t-150 59q-49 50 -65.5 120t-16.5 182t16.5 182.5t65.5 120.5q58 58 150 58t150 -58q49 -50 65.5 -120.5t16.5 -182.5zM423 348q0 51 -1 73.5t-5.5 63t-17 67.5t-33.5 47q-34 32 -86 32t-86 -32q-21 -20 -33.5 -47
t-17 -67.5t-5.5 -63t-1 -73.5t1 -73.5t5.5 -63t17 -67.5t33.5 -47q34 -32 86 -32t86 32q21 20 33.5 47t17 67.5t5.5 63t1 73.5z" />
    <glyph glyph-name="one" unicode="1" 
d="M368 0h-87v598l-165 -121v95l170 123h82v-695z" />
    <glyph glyph-name="two" unicode="2" 
d="M489 0h-417v73l281 347q38 48 38 100q0 53 -29.5 82.5t-84.5 29.5q-51 0 -84.5 -30.5t-33.5 -95.5h-88q0 91 56.5 147t148.5 56q113 0 170 -80q32 -46 32 -108q0 -75 -59 -148l-236 -293h306v-80z" />
    <glyph glyph-name="three" unicode="3" 
d="M494 190q0 -84 -53 -140q-60 -63 -168 -63q-96 0 -159 63q-58 58 -59 149h87q3 -62 36 -96q36 -39 95 -39q65 0 101 40q33 36 33 88q0 62 -39 95.5t-104 33.5h-42v79h42q60 0 94 31t34 86q0 49 -33 81q-34 34 -85 34q-50 0 -85 -28q-40 -33 -42 -98h-87q1 99 67 153
q61 50 149 50q89 0 148 -56q56 -51 56 -136q0 -49 -29.5 -94t-72.5 -63q54 -18 85 -66t31 -104z" />
    <glyph glyph-name="four" unicode="4" 
d="M529 148h-94v-148h-86v148h-319v89l264 458h90l-272 -470h237v207h86v-207h94v-77z" />
    <glyph glyph-name="five" unicode="5" 
d="M510 229q0 -113 -58 -177q-59 -66 -162 -66q-99 0 -161 60q-59 58 -64 154h85q3 -63 39 -99q37 -37 100 -37q66 0 101 45q34 43 34 116q0 75 -39 119q-36 39 -96 39q-78 0 -115 -61h-95l19 373h384v-77h-311l-11 -222q43 63 146 63q87 0 142 -57q62 -64 62 -173z" />
    <glyph glyph-name="six" unicode="6" 
d="M515 224q0 -101 -63 -170q-62 -67 -164 -67q-108 0 -170 86q-59 81 -59 265q0 194 52 277q60 94 181 94q87 0 144 -57q53 -53 56 -125h-86q-3 47 -39 78q-32 27 -78 27q-58 0 -95 -42q-47 -53 -49 -213q16 36 60 58.5t94 22.5q90 0 146 -54q70 -67 70 -180zM429 223
q0 73 -41 119q-35 40 -98 40q-60 0 -97 -42q-39 -44 -39 -117t41 -117q39 -42 97 -42q59 0 96 40q41 44 41 119z" />
    <glyph glyph-name="seven" unicode="7" 
d="M496 618l-287 -618h-92l289 618h-356v77h446v-77z" />
    <glyph glyph-name="eight" unicode="8" 
d="M505 191q0 -74 -46 -128q-64 -76 -179 -76t-179 76q-46 54 -46 128q0 56 30 102.5t79 68.5q-43 23 -69 65t-26 92q0 80 57 134q61 56 154 56t154 -56q57 -54 57 -134q0 -50 -26 -92t-69 -65q49 -22 79 -68.5t30 -102.5zM405 519q0 52 -36 83.5t-89 31.5t-89 -31.5
t-36 -83.5q0 -50 33.5 -85t91.5 -35t91.5 35t33.5 85zM419 195q0 57 -37.5 93.5t-101.5 36.5t-101.5 -36.5t-37.5 -93.5q0 -61 38.5 -97t100.5 -36t100.5 36t38.5 97z" />
    <glyph glyph-name="nine" unicode="9" 
d="M505 358q0 -194 -52 -277q-60 -94 -181 -94q-89 0 -144 57q-53 53 -56 125h86q3 -47 39 -78q30 -27 78 -27q58 0 95 42q47 53 49 213q-16 -36 -60 -58.5t-94 -22.5q-90 0 -146 54q-70 67 -70 180q0 101 63 170q62 67 164 67q106 0 170 -86q59 -81 59 -265zM410 473
q0 73 -41 117q-39 42 -97 42q-59 0 -96 -40q-41 -44 -41 -119q0 -73 41 -119q35 -40 98 -40q60 0 97 42q39 44 39 117z" />
    <glyph glyph-name="colon" unicode=":" horiz-adv-x="304" 
d="M216 395h-110v111h110v-111zM216 -1h-110v110h110v-110z" />
    <glyph glyph-name="semicolon" unicode=";" horiz-adv-x="304" 
d="M216 394h-110v112h110v-112zM216 0q0 -57 -20 -92t-70 -56l-23 44q36 16 48 39t12 65h-57v110h110v-110z" />
    <glyph glyph-name="less" unicode="&#x3c;" horiz-adv-x="472" 
d="M412 36l-48 -49l-319 318l318 317l49 -48l-269 -269z" />
    <glyph glyph-name="equal" unicode="=" horiz-adv-x="692" 
d="M587 344h-482v77h482v-77zM587 134h-482v77h482v-77z" />
    <glyph glyph-name="greater" unicode="&#x3e;" horiz-adv-x="472" 
d="M427 305l-319 -318l-48 49l269 269l-269 269l49 48z" />
    <glyph glyph-name="question" unicode="?" horiz-adv-x="504" 
d="M474 535q0 -105 -108 -184q-45 -33 -58 -60.5t-13 -76.5v-25h-82v28q0 75 23.5 114t88.5 89q61 47 61 116q0 44 -30 76q-34 36 -92 36q-63 0 -98.5 -41t-35.5 -102h-90q0 91 59.5 155.5t164.5 64.5q88 0 149 -52t61 -138zM306 0h-106v110h106v-110z" />
    <glyph glyph-name="at" unicode="@" horiz-adv-x="943" 
d="M875 380q0 -48 -11.5 -93.5t-34.5 -86t-63.5 -65t-92.5 -24.5q-39 0 -66 19.5t-32 56.5q-15 -33 -49 -53.5t-71 -20.5q-75 0 -116 53t-41 138q0 88 49 146.5t135 58.5q29 0 56 -14.5t40 -38.5l11 42h67l-18 -253q-4 -63 41 -63q31 0 54.5 21t36 53t18.5 63.5t6 59.5
q0 117 -72 189q-80 80 -220 80q-135 0 -226 -81q-106 -94 -106 -259q0 -141 89 -233q84 -86 217 -86q140 0 251 48v-73q-103 -50 -252 -50q-163 0 -267 96q-123 114 -123 307q0 180 116 291q119 114 300 114q175 0 281 -104q93 -91 93 -238zM568 325q0 115 -90 115
q-49 0 -72 -41t-23 -95q0 -49 20 -83.5t65 -34.5q54 0 77 40t23 99z" />
    <glyph glyph-name="A" unicode="A" horiz-adv-x="621" 
d="M613 0h-92l-58 168h-308l-57 -168h-90l250 709h104zM434 252l-126 368l-125 -368h251z" />
    <glyph glyph-name="B" unicode="B" horiz-adv-x="668" 
d="M618 198q0 -76 -54 -133q-60 -65 -178 -65h-286v709h283q114 0 173 -65q46 -51 46 -118q0 -53 -27 -96.5t-75 -60.5q54 -18 86 -66t32 -105zM511 519q0 53 -37 82t-91 29h-196v-223h199q58 0 91.5 27.5t33.5 84.5zM527 204q0 57 -40 91t-99 34h-201v-247h199
q62 0 101.5 31t39.5 91z" />
    <glyph glyph-name="C" unicode="C" horiz-adv-x="634" 
d="M594 226q-4 -97 -70 -164q-34 -34 -84 -55t-106 -21q-114 0 -192 76q-53 52 -71 122.5t-18 169.5t18 169.5t71 122.5q78 76 192 76q116 0 189 -73q66 -67 70 -162h-92q-1 57 -39 99q-47 52 -128 52q-77 0 -129 -54q-27 -28 -41 -72t-16.5 -76.5t-2.5 -81.5t2.5 -81.5
t16.5 -76.5t41 -72q52 -54 129 -54q80 0 129 54q37 42 39 102h92z" />
    <glyph glyph-name="D" unicode="D" horiz-adv-x="677" 
d="M624 355q0 -197 -91 -284q-74 -71 -186 -71h-247v709h247q111 0 186 -72q91 -86 91 -282zM534 355q0 73 -11.5 128.5t-49.5 94.5q-49 49 -126 49h-158v-545h158q77 0 126 49q61 62 61 224z" />
    <glyph glyph-name="E" unicode="E" horiz-adv-x="625" 
d="M574 0h-474v709h474v-82h-385v-216h338v-84h-338v-245h385v-82z" />
    <glyph glyph-name="F" unicode="F" horiz-adv-x="587" 
d="M559 627h-370v-231h330v-84h-330v-312h-89v709h459v-82z" />
    <glyph glyph-name="G" unicode="G" horiz-adv-x="680" 
d="M606 0h-62l-15 85q-26 -44 -79.5 -71.5t-113.5 -27.5q-117 0 -191 73q-51 50 -71.5 121.5t-20.5 173.5q0 97 19.5 168.5t72.5 123.5q78 76 191 76q128 0 203 -80q57 -60 61 -138h-93q-4 44 -32 78q-47 56 -139 56q-77 0 -129 -54q-62 -64 -62 -230q0 -168 64 -233
q50 -51 127 -51q80 0 129 49q61 60 61 180h-190v83h270v-382z" />
    <glyph glyph-name="H" unicode="H" horiz-adv-x="718" 
d="M618 0h-89v327h-340v-327h-89v709h89v-296h340v296h89v-709z" />
    <glyph glyph-name="I" unicode="I" horiz-adv-x="291" 
d="M191 0h-91v709h91v-709z" />
    <glyph glyph-name="J" unicode="J" horiz-adv-x="493" 
d="M413 198q0 -97 -52.5 -154t-147.5 -57q-90 0 -148 60q-57 58 -57 168h90q0 -81 37 -116q31 -29 78 -29q111 0 111 128v511h89v-511z" />
    <glyph glyph-name="K" unicode="K" horiz-adv-x="662" 
d="M649 0h-104l-212 368l-144 -168v-200h-89v709h89v-378l325 378h111l-231 -270z" />
    <glyph glyph-name="L" unicode="L" horiz-adv-x="544" 
d="M530 0h-430v709h89v-626h341v-83z" />
    <glyph glyph-name="M" unicode="M" horiz-adv-x="880" 
d="M780 0h-85v598l-220 -588h-70l-220 593v-603h-85v709h128l214 -577l213 577h125v-709z" />
    <glyph glyph-name="N" unicode="N" horiz-adv-x="734" 
d="M634 0h-100l-348 570v-570h-86v709h100l348 -572v572h86v-709z" />
    <glyph glyph-name="O" unicode="O" horiz-adv-x="670" 
d="M617 354q0 -98 -19 -169t-72 -123q-78 -76 -191 -76t-191 76q-53 52 -72 123t-19 169t19 169t72 123q78 76 191 76t191 -76q53 -52 72 -123t19 -169zM525 354q0 48 -2.5 81t-17 77t-41.5 72q-51 53 -129 53t-129 -53q-27 -28 -41.5 -72t-17 -77t-2.5 -81t2.5 -81t17 -77
t41.5 -72q51 -53 129 -53t129 53q27 28 41.5 72t17 77t2.5 81z" />
    <glyph glyph-name="P" unicode="P" horiz-adv-x="627" 
d="M597 495q0 -102 -59 -161t-174 -59h-175v-275h-89v709h263q121 0 180 -64q54 -59 54 -150zM505 495q0 66 -38 99.5t-106 33.5h-172v-272h173q143 0 143 139z" />
    <glyph glyph-name="Q" unicode="Q" horiz-adv-x="670" 
d="M617 354q0 -97 -18.5 -168t-71.5 -123l64 -83l-59 -46l-65 84q-62 -32 -132 -32q-113 0 -191 76q-53 52 -72 123t-19 169t19 169t72 123q78 76 191 76t191 -76q53 -52 72 -123t19 -169zM525 354q0 48 -2.5 81t-17 77t-41.5 72q-51 53 -129 53t-129 -53q-27 -28 -41.5 -72
t-17 -77t-2.5 -81t2.5 -81t17 -77t41.5 -72q51 -53 129 -53q39 0 78 17l-84 108l58 45l85 -108q53 64 53 221z" />
    <glyph glyph-name="R" unicode="R" horiz-adv-x="662" 
d="M617 0h-98l-134 295h-196v-295h-89v709h278q119 0 180 -63q56 -59 56 -144q0 -83 -54 -140q-31 -33 -85 -50zM522 502q0 125 -144 125h-189v-249h189q144 0 144 124z" />
    <glyph glyph-name="S" unicode="S" horiz-adv-x="635" 
d="M585 195q0 -79 -60 -137q-72 -71 -201 -71t-203 68q-76 71 -76 170h93q0 -64 50 -112q45 -44 136 -44q88 0 132 41q36 33 36 83q0 44 -29.5 74.5t-89.5 39.5l-112 17q-85 13 -137 60t-52 128t62 140q75 70 186 70q113 0 184 -68q65 -62 68 -152h-93q-3 52 -35 89
q-43 49 -125 49q-83 0 -126 -49q-29 -34 -29 -77q0 -44 30.5 -69t75.5 -31q5 -1 118 -18q90 -13 143.5 -66t53.5 -135z" />
    <glyph glyph-name="T" unicode="T" horiz-adv-x="538" 
d="M525 626h-211v-626h-90v626h-211v83h512v-83z" />
    <glyph glyph-name="U" unicode="U" horiz-adv-x="678" 
d="M598 260q0 -131 -69 -202t-190 -71t-190 71t-69 202v449h89v-451q0 -188 170 -188t170 188v451h89v-449z" />
    <glyph glyph-name="V" unicode="V" horiz-adv-x="579" 
d="M575 709l-239 -709h-93l-239 709h92l196 -599l192 599h91z" />
    <glyph glyph-name="W" unicode="W" horiz-adv-x="862" 
d="M830 709l-141 -709h-95l-162 571l-164 -571h-94l-142 709h83l113 -578l164 568h80l164 -567l113 577h81z" />
    <glyph glyph-name="X" unicode="X" horiz-adv-x="584" 
d="M569 0h-99l-180 291l-178 -291h-97l224 358l-220 351h99l178 -287l175 287h95l-221 -351z" />
    <glyph glyph-name="Y" unicode="Y" horiz-adv-x="566" 
d="M566 709l-238 -421v-288h-90v288l-238 421h100l186 -337l185 337h95z" />
    <glyph glyph-name="Z" unicode="Z" horiz-adv-x="612" 
d="M566 0h-523v89l413 537h-409v83h515v-90l-414 -536h418v-83z" />
    <glyph glyph-name="bracketleft" unicode="[" horiz-adv-x="311" 
d="M286 -114h-188v871h188v-62h-119v-747h119v-62z" />
    <glyph glyph-name="backslash" unicode="\" horiz-adv-x="400" 
d="M383 -13h-70l-308 735h70z" />
    <glyph glyph-name="bracketright" unicode="]" horiz-adv-x="311" 
d="M213 -114h-188v62h118v747h-118v62h188v-871z" />
    <glyph glyph-name="asciicircum" unicode="^" horiz-adv-x="542" 
d="M477 405h-89l-117 225l-118 -225h-88l168 317h76z" />
    <glyph glyph-name="underscore" unicode="_" horiz-adv-x="545" 
d="M520 -60h-495v60h495v-60z" />
    <glyph glyph-name="grave" unicode="`" horiz-adv-x="240" 
d="M226 598l-31 -47l-185 99l45 71z" />
    <glyph glyph-name="a" unicode="a" horiz-adv-x="559" 
d="M517 5q-24 -12 -56 -12q-33 0 -53 22t-20 55h-2q-22 -38 -66 -60.5t-97 -22.5q-82 0 -128 46.5t-46 109.5q0 36 15 68.5t57.5 59t107.5 30.5l154 9v37q0 53 -26 77q-28 26 -83 26q-62 0 -92 -30q-25 -25 -25 -61h-83q1 62 44 106q51 54 156 54q136 0 178 -97
q15 -34 15 -78v-245q0 -34 28 -34l22 3v-63zM383 214v30l-136 -8q-45 -3 -78 -25t-33 -66q0 -37 24.5 -62t75.5 -25q64 0 104 41q43 44 43 115z" />
    <glyph glyph-name="b" unicode="b" horiz-adv-x="595" 
d="M541 252q0 -135 -73 -210q-53 -55 -143 -55q-45 0 -87.5 21t-63.5 58l-6 -66h-75v722h85v-275q19 33 61.5 52.5t85.5 19.5q85 0 139 -51q77 -74 77 -216zM454 253q0 82 -33 138t-110 56q-45 0 -82 -33q-56 -49 -56 -161t56 -161q37 -33 82 -33q77 0 110 56t33 138z" />
    <glyph glyph-name="c" unicode="c" horiz-adv-x="532" 
d="M486 170q-6 -76 -59 -128q-57 -55 -146 -55q-120 0 -185 95q-42 62 -42 171t42 171q65 95 184 95q88 0 144 -54q54 -53 60 -130h-86q-6 49 -36 79q-33 31 -82 31q-50 0 -88 -33q-51 -43 -51 -159t51 -159q38 -33 88 -33q54 0 86 34q29 30 34 75h86z" />
    <glyph glyph-name="d" unicode="d" horiz-adv-x="595" 
d="M502 0h-75l-6 66q-21 -37 -63.5 -58t-87.5 -21q-90 0 -143 55q-73 75 -73 210q0 142 77 216q54 51 139 51q43 0 85.5 -19.5t61.5 -52.5v275h85v-722zM422 253q0 112 -56 161q-37 33 -82 33q-77 0 -110 -56t-33 -138t33 -138t110 -56q45 0 82 33q56 49 56 161z" />
    <glyph glyph-name="e" unicode="e" horiz-adv-x="551" 
d="M501 276l-1 -51h-358q0 -78 49 -127q36 -36 93 -36q62 0 94 33q21 21 30 55h83q-11 -79 -78 -125q-57 -38 -129 -38q-104 0 -168 76q-63 73 -63 188q0 97 39 162q28 48 77.5 77t113.5 29q94 0 154 -65q66 -72 64 -178zM414 298q0 61 -31 103q-35 46 -100 46t-101 -44
t-38 -105h270z" />
    <glyph glyph-name="f" unicode="f" horiz-adv-x="366" 
d="M361 652q-72 8 -84 8q-33 0 -52.5 -19t-19.5 -50v-85h146v-72h-146v-434h-85v434h-92v72h92v90q0 58 41 97t106 39q44 0 94 -9v-71z" />
    <glyph glyph-name="g" unicode="g" horiz-adv-x="540" 
d="M525 -75q0 -59 -43 -102q-60 -59 -204 -59q-133 0 -192 59q-36 36 -36 90q0 76 72 112q-26 10 -42.5 33t-16.5 52q0 66 67 98q-58 52 -58 131q0 73 48 123q55 57 150 57q67 0 116 -30q13 34 40.5 52.5t63.5 18.5q9 0 25 -2v-69q-5 1 -19 1q-25 0 -41.5 -12.5t-20.5 -33.5
q33 -42 33 -105q0 -70 -46 -121q-55 -60 -151 -60q-44 0 -85 14q-40 -13 -43 -45q-1 -16 5.5 -26.5t19.5 -15t24.5 -6.5t26.5 -2h100q115 0 167 -53q40 -40 40 -99zM384 339q0 49 -31 80t-84 31q-51 0 -83 -31.5t-32 -79.5q0 -49 31 -81t84 -32q51 0 83 32t32 81zM442 -75
q0 19 -6 33.5t-19 23t-24 14t-32.5 7t-32 2t-33.5 0.5h-12h-92q-27 -9 -45.5 -30.5t-18.5 -49.5q0 -32 21 -53q35 -35 135 -35q102 0 138 36q21 21 21 52z" />
    <glyph glyph-name="h" unicode="h" horiz-adv-x="587" 
d="M502 0h-85v321q0 121 -111 121q-73 0 -110 -78q-18 -39 -18 -129v-235h-85v722h85v-283q22 38 63 59t85 21q85 0 130.5 -48.5t45.5 -137.5v-333z" />
    <glyph glyph-name="i" unicode="i" horiz-adv-x="273" 
d="M186 622h-99v100h99v-100zM180 0h-87v506h87v-506z" />
    <glyph glyph-name="j" unicode="j" horiz-adv-x="283" 
d="M196 622h-99v100h99v-100zM190 -71q0 -68 -34.5 -105.5t-104.5 -37.5q-35 0 -66 10v73q26 -5 63 -5q27 0 42 18.5t15 45.5v578h85v-577z" />
    <glyph glyph-name="k" unicode="k" horiz-adv-x="545" 
d="M529 0h-96l-158 244l-97 -108v-136h-85v722h85v-471l229 255h103l-180 -200z" />
    <glyph glyph-name="l" unicode="l" horiz-adv-x="291" 
d="M256 0q-19 -6 -60 -6q-106 0 -106 124v604h85v-599q0 -27 10.5 -39.5t35.5 -12.5l35 1v-72z" />
    <glyph glyph-name="m" unicode="m" horiz-adv-x="878" 
d="M793 0h-85v322q0 58 -23 89t-80 31q-45 0 -77 -34q-43 -44 -43 -139v-269h-85v322q0 58 -22.5 89t-79.5 31q-51 0 -86 -45q-34 -44 -34 -128v-269h-85v506h74l8 -72q19 41 58 63t84 22q117 0 151 -96q20 46 63 71t93 25q84 0 126.5 -49.5t42.5 -136.5v-333z" />
    <glyph glyph-name="n" unicode="n" horiz-adv-x="585" 
d="M502 0h-85v321q0 121 -111 121q-73 0 -110 -78q-18 -39 -18 -129v-235h-85v506h74l7 -76q19 41 63 65t90 24q85 0 130 -48.5t45 -137.5v-333z" />
    <glyph glyph-name="o" unicode="o" horiz-adv-x="558" 
d="M504 253q0 -136 -72 -207q-61 -59 -153 -59t-153 59q-72 71 -72 207t72 207q61 59 153 59t153 -59q72 -71 72 -207zM417 253q0 109 -47 157q-36 36 -91 36t-91 -36q-47 -48 -47 -157t47 -157q36 -36 91 -36t91 36q47 48 47 157z" />
    <glyph glyph-name="p" unicode="p" horiz-adv-x="595" 
d="M541 253q0 -142 -77 -216q-54 -51 -139 -51q-43 0 -85.5 19.5t-61.5 52.5v-275h-85v722h75l6 -66q21 37 63.5 58t87.5 21q90 0 143 -55q73 -75 73 -210zM454 252q0 82 -33 138t-110 56q-45 0 -82 -33q-56 -49 -56 -161t56 -161q37 -33 82 -33q77 0 110 56t33 138z" />
    <glyph glyph-name="q" unicode="q" horiz-adv-x="595" 
d="M502 -217h-85v275q-19 -33 -61.5 -52.5t-85.5 -19.5q-85 0 -139 51q-77 74 -77 216q0 135 73 210q53 55 143 55q45 0 87.5 -21t63.5 -58l6 66h75v-722zM422 252q0 112 -56 161q-37 33 -82 33q-77 0 -110 -56t-33 -138t33 -138t110 -56q45 0 82 33q56 49 56 161z" />
    <glyph glyph-name="r" unicode="r" horiz-adv-x="384" 
d="M366 423q-20 4 -47 4q-54 0 -96 -40q-46 -44 -46 -162v-225h-84v506h75l7 -89q19 45 60 68.5t91 23.5q20 0 40 -3v-83z" />
    <glyph glyph-name="s" unicode="s" horiz-adv-x="521" 
d="M468 147q0 -61 -40 -103q-56 -57 -165 -57q-106 0 -164 57q-49 47 -49 116h85q1 -49 41 -79q31 -23 91 -23t93 28q25 20 25 55q0 61 -79 72l-114 15q-58 9 -91 44t-33 92t42 99q54 56 149 56q110 0 161 -64q36 -44 36 -97h-85q-2 39 -29 63q-30 27 -83 27q-35 0 -59 -10
q-51 -21 -51 -68q0 -56 68 -66q9 -1 30 -4t44.5 -6t47.5 -7q56 -9 92.5 -47t36.5 -93z" />
    <glyph glyph-name="t" unicode="t" horiz-adv-x="385" 
d="M355 7q-54 -14 -101 -14q-75 0 -107 39t-32 98v303h-98v73h98v129l85 20v-149h150v-73h-150v-293q0 -36 16 -52.5t52 -16.5q16 0 38 2.5t36 4.5l13 2v-73z" />
    <glyph glyph-name="u" unicode="u" horiz-adv-x="582" 
d="M489 0h-74l-7 77q-19 -42 -61 -65.5t-89 -23.5q-85 0 -129 48.5t-44 137.5v332h85v-320q0 -60 25 -90.5t83 -30.5q48 0 84 38q42 43 42 140v263h85v-506z" />
    <glyph glyph-name="v" unicode="v" horiz-adv-x="486" 
d="M474 506l-183 -506h-92l-187 506h89l146 -406l141 406h86z" />
    <glyph glyph-name="w" unicode="w" horiz-adv-x="767" 
d="M729 506l-131 -506h-82l-132 387l-135 -387h-81l-130 506h84l97 -382l129 376h73l127 -376l98 382h83z" />
    <glyph glyph-name="x" unicode="x" horiz-adv-x="498" 
d="M481 0h-102l-133 199l-132 -199h-97l172 258l-170 248h100l132 -191l127 191h98l-171 -248z" />
    <glyph glyph-name="y" unicode="y" horiz-adv-x="498" 
d="M488 506l-228 -610q-19 -53 -51 -80.5t-86 -27.5q-42 0 -77 10v74q27 -8 60 -8q57 0 76 51l32 85l-202 506h96l149 -399l142 399h89z" />
    <glyph glyph-name="z" unicode="z" horiz-adv-x="501" 
d="M453 0h-400v75l294 357h-294v74h397v-75l-293 -357h296v-74z" />
    <glyph glyph-name="braceleft" unicode="{" horiz-adv-x="349" 
d="M339 -119h-27q-85 0 -120.5 42t-35.5 128v156q0 67 -101 76v72q38 5 69.5 24.5t31.5 53.5v154q0 90 33.5 130.5t122.5 40.5h26v-63h-26q-51 0 -69 -24t-18 -78v-161q0 -90 -94 -108v-2q42 -10 68 -37.5t26 -68.5v-161q0 -111 88 -111h26v-63z" />
    <glyph glyph-name="bar" unicode="|" horiz-adv-x="269" 
d="M169 -119h-69v877h69v-877z" />
    <glyph glyph-name="braceright" unicode="}" horiz-adv-x="349" 
d="M294 283q-101 -9 -101 -76v-156q0 -86 -35.5 -128t-120.5 -42h-27v63h26q88 0 88 111v161q0 41 26 68.5t68 37.5v2q-94 18 -94 108v161q0 54 -18 78t-69 24h-26v63h26q89 0 122.5 -40.5t33.5 -130.5v-154q0 -34 31.5 -53.5t69.5 -24.5v-72z" />
    <glyph glyph-name="asciitilde" unicode="~" horiz-adv-x="639" 
d="M564 311q-45 -46 -77 -62t-70 -16q-47 0 -117 34q-54 26 -79 26q-24 0 -45.5 -9t-51.5 -40l-49 56q44 46 76 62t71 16q36 0 80 -17q12 -5 37.5 -16.5t38.5 -16.5q21 -8 39 -8q25 0 46 9t51 39z" />
    <glyph glyph-name="uni00A0" unicode="&#xa0;" horiz-adv-x="230" 
 />
    <glyph glyph-name="exclamdown" unicode="&#xa1;" horiz-adv-x="331" 
d="M201 396h-106v109h106v-109zM197 -204h-102v224l23 270h58l21 -270v-224z" />
    <glyph glyph-name="cent" unicode="&#xa2;" 
d="M496 271q-6 -79 -59 -131q-46 -46 -120 -54v-86h-61v87q-94 11 -150 92q-42 62 -42 172t41 171q56 82 151 93v94h61v-93q68 -7 117 -53q54 -53 60 -133h-86q-6 52 -36 82q-22 22 -55 28v-378q37 8 59 31q28 30 34 78h86zM256 162v378q-105 -23 -105 -189q0 -167 105 -189
z" />
    <glyph glyph-name="sterling" unicode="&#xa3;" 
d="M543 157q0 -157 -164 -157h-327v79q79 2 79 80v172h-80v73h80v109q0 81 52 139t142 58q84 0 136 -51.5t52 -128.5h-85q0 47 -28.5 76t-76.5 29q-54 0 -80 -33.5t-26 -88.5v-109h161v-73h-161v-176q0 -65 -43 -77v-2h208q75 0 77 81h84z" />
    <glyph glyph-name="currency" unicode="&#xa4;" 
d="M543 52l-64 -64l-70 78q-58 -41 -129 -41q-69 0 -129 41l-69 -78l-65 64l79 68q-42 60 -42 134t42 134l-79 65l66 66l67 -77q58 40 130 40t129 -40l69 78l65 -67l-78 -65q42 -60 42 -134t-42 -134zM425 254q0 64 -39.5 107t-105.5 43q-71 0 -108 -41.5t-37 -108.5
q0 -62 39 -106.5t106 -44.5q68 0 106.5 42.5t38.5 108.5z" />
    <glyph glyph-name="yen" unicode="&#xa5;" 
d="M545 695l-179 -313h132v-61h-174v-91h174v-61h-174v-169h-89v169h-163v61h163v91h-163v61h121l-178 313h94l174 -309l170 309h92z" />
    <glyph glyph-name="brokenbar" unicode="&#xa6;" horiz-adv-x="276" 
d="M176 450h-76v309h76v-309zM176 -50h-76v308h76v-308z" />
    <glyph glyph-name="section" unicode="&#xa7;" horiz-adv-x="562" 
d="M502 163q0 -42 -25 -77.5t-61 -57.5q41 -47 41 -109q0 -69 -47 -114q-50 -48 -131 -48q-84 0 -135 54q-46 49 -46 125h83q0 -49 26 -78t72 -29q41 0 68 24t27 64q0 46 -42 82l-202 171q-65 54 -65 135q0 42 25 77.5t61 57.5q-41 47 -41 109q0 67 47 112q52 50 131 50
q84 0 135 -54q46 -49 46 -125h-83q0 49 -26 78t-72 29q-41 0 -68 -24t-27 -64q0 -46 42 -82l202 -171q65 -54 65 -135zM384 236l-184 158q-48 -25 -52.5 -77t35.5 -85l184 -158q48 25 52.5 77t-35.5 85z" />
    <glyph glyph-name="dieresis" unicode="&#xa8;" horiz-adv-x="290" 
d="M279 754h-92v92h92v-92zM103 754h-92v92h92v-92z" />
    <glyph glyph-name="copyright" unicode="&#xa9;" horiz-adv-x="858" 
d="M790 355q0 -155 -103.5 -261.5t-257.5 -106.5t-257.5 106t-103.5 261t103.5 261.5t257.5 106.5t257.5 -106t103.5 -261zM723 355q0 133 -81.5 218t-212.5 85t-212.5 -85.5t-81.5 -218.5t81.5 -218t212.5 -85t212.5 85.5t81.5 218.5zM601 300q-6 -64 -52.5 -104
t-113.5 -40q-91 0 -141 72q-38 54 -38 126q0 83 48.5 140.5t130.5 57.5q69 0 115 -40.5t51 -103.5h-76q-5 39 -29.5 59t-60.5 20q-46 0 -74 -35q-30 -37 -30 -98q0 -62 29 -98q28 -35 75 -35q36 0 60.5 20t29.5 59h76z" />
    <glyph glyph-name="ordfeminine" unicode="&#xaa;" horiz-adv-x="484" 
d="M420 315q-19 -10 -44 -10t-40.5 16t-17.5 40q-37 -60 -121 -60q-63 0 -98.5 35.5t-35.5 84.5q0 45 33.5 81.5t105.5 40.5l113 7v26q0 42 -18 58q-21 19 -62 19q-46 0 -68 -22q-18 -18 -18 -48h-67q1 63 44.5 94.5t108.5 31.5q106 0 137 -75q10 -22 10 -60v-186
q0 -24 20 -24l18 2v-51zM315 475v21l-100 -6q-34 -2 -58 -18.5t-24 -48.5q0 -27 18 -45.5t56 -18.5q47 0 76 30q32 32 32 86z" />
    <glyph glyph-name="guillemotleft" unicode="&#xab;" horiz-adv-x="550" 
d="M495 108l-54 -40l-164 230l164 230l53 -38l-111 -191zM263 108l-54 -40l-164 230l164 230l53 -38l-111 -191z" />
    <glyph glyph-name="logicalnot" unicode="&#xac;" horiz-adv-x="625" 
d="M540 99h-78v165h-407v77h485v-242z" />
    <glyph glyph-name="registered" unicode="&#xae;" horiz-adv-x="858" 
d="M790 355q0 -155 -103.5 -261.5t-257.5 -106.5t-257.5 106t-103.5 261t103.5 261.5t257.5 106.5t257.5 -106t103.5 -261zM723 355q0 133 -81.5 218t-212.5 85t-212.5 -85.5t-81.5 -218.5t81.5 -218t212.5 -85t212.5 85.5t81.5 218.5zM583 169h-73l-64 141h-75v-141h-67
v383h141q58 0 97 -32t39 -88q0 -80 -69 -111zM511 432q0 28 -18.5 43t-47.5 15h-75v-118h75q66 0 66 60z" />
    <glyph glyph-name="macron" unicode="&#xaf;" horiz-adv-x="296" 
d="M287 588h-278v68h278v-68z" />
    <glyph glyph-name="degree" unicode="&#xb0;" horiz-adv-x="461" 
d="M396 558q0 -71 -47.5 -117.5t-118.5 -46.5t-118 46t-47 118t47 118t118 46t118.5 -46.5t47.5 -117.5zM321 558q0 41 -26 67t-65 26t-64.5 -26t-25.5 -67t25.5 -67t64.5 -26t65 26t26 67z" />
    <glyph glyph-name="plusminus" unicode="&#xb1;" horiz-adv-x="569" 
d="M504 332h-184v-187h-70v187h-185v70h185v185h70v-185h184v-70zM504 0h-439v69h439v-69z" />
    <glyph glyph-name="twosuperior" unicode="&#xb2;" horiz-adv-x="412" 
d="M347 343h-274v63l155 130q39 32 39 67q0 15 -8 25q-15 25 -55 25q-32 0 -49 -18.5t-19 -51.5h-71q1 61 40.5 97t100.5 36q56 0 93.5 -31.5t37.5 -85.5q0 -27 -12 -50.5t-24.5 -36t-40.5 -35.5l-81 -68h168v-66z" />
    <glyph glyph-name="threesuperior" unicode="&#xb3;" horiz-adv-x="414" 
d="M349 447q0 -41 -25 -69q-39 -42 -117 -42q-73 0 -112 45q-30 35 -30 80h69q1 -32 21 -50t52 -18q71 0 71 53q0 56 -66 56h-28v57q39 0 54 4q32 9 32 49q0 21 -18 35t-45 14t-48 -15.5t-22 -47.5h-69q0 50 35 83q39 36 105 36q74 0 110 -43q24 -29 24 -66q0 -25 -16 -48.5
t-40 -29.5q28 -7 45.5 -31.5t17.5 -51.5z" />
    <glyph glyph-name="acute" unicode="&#xb4;" horiz-adv-x="244" 
d="M230 650l-185 -99l-30 47l170 123z" />
    <glyph glyph-name="mu" unicode="&#xb5;" horiz-adv-x="590" 
d="M497 0h-74l-7 77q-19 -42 -61 -65.5t-89 -23.5q-55 0 -88 26v-214h-85v706h85v-320q0 -60 25 -90.5t83 -30.5q48 0 84 38q42 43 42 140v263h85v-506z" />
    <glyph glyph-name="paragraph" unicode="&#xb6;" horiz-adv-x="657" 
d="M582 640h-69v-765h-73v765h-112v-765h-75v457q-78 0 -133 55.5t-55 133.5t55 133t133 55h329v-69z" />
    <glyph glyph-name="periodcentered" unicode="&#xb7;" horiz-adv-x="298" 
d="M208 247h-118v119h118v-119z" />
    <glyph glyph-name="cedilla" unicode="&#xb8;" horiz-adv-x="174" 
d="M165 -62l-69 -176l-88 41l79 135h78z" />
    <glyph glyph-name="onesuperior" unicode="&#xb9;" horiz-adv-x="310" 
d="M218 345h-71v281l-92 -63v79l97 67h66v-364z" />
    <glyph glyph-name="ordmasculine" unicode="&#xba;" horiz-adv-x="484" 
d="M413 505q0 -105 -54 -159q-46 -46 -117 -46q-70 0 -116 46q-55 55 -55 159q0 103 55 158q46 46 116 46q71 0 117 -46q54 -54 54 -158zM343 505q0 83 -34 118q-24 26 -67 26q-42 0 -66 -26q-34 -35 -34 -118q0 -84 34 -119q24 -26 66 -26q43 0 67 26q34 35 34 119z" />
    <glyph glyph-name="guillemotright" unicode="&#xbb;" horiz-adv-x="550" 
d="M505 298l-164 -230l-54 40l112 191l-111 191l53 38zM273 298l-164 -230l-54 40l112 191l-111 191l53 38z" />
    <glyph glyph-name="onequarter" unicode="&#xbc;" horiz-adv-x="860" 
d="M795 75h-59v-75h-69v75h-178v69l143 225h81l-148 -235h102v78h69v-78h59v-59zM710 685l-516 -706l-54 41l515 704zM247 345h-71v281l-92 -63v79l97 67h66v-364z" />
    <glyph glyph-name="onehalf" unicode="&#xbd;" horiz-adv-x="909" 
d="M804 -1h-274v63l155 130q39 32 39 67q0 11 -8 25q-16 25 -55 25q-32 0 -49.5 -19t-18.5 -51h-71q1 61 40 97t101 36q56 0 93.5 -31.5t37.5 -85.5q0 -27 -12 -50.5t-24.5 -36t-40.5 -35.5l-81 -68h168v-66zM705 685l-516 -706l-54 41l515 704zM242 345h-71v281l-92 -63v79
l97 67h66v-364z" />
    <glyph glyph-name="threequarters" unicode="&#xbe;" horiz-adv-x="902" 
d="M837 75h-59v-75h-69v75h-178v69l143 225h81l-148 -235h102v78h69v-78h59v-59zM752 685l-516 -706l-54 41l515 704zM349 447q0 -41 -25 -69q-39 -42 -117 -42q-73 0 -112 45q-30 35 -30 80h69q1 -32 21 -50t52 -18q71 0 71 53q0 56 -66 56h-28v57q39 0 54 4q32 9 32 49
q0 21 -18 35t-45 14t-48 -15.5t-22 -47.5h-69q0 50 35 83q39 36 105 36q74 0 110 -43q24 -29 24 -66q0 -25 -16 -48.5t-40 -29.5q28 -7 45.5 -31.5t17.5 -51.5z" />
    <glyph glyph-name="questiondown" unicode="&#xbf;" horiz-adv-x="504" 
d="M304 397h-106v110h106v-110zM464 2q0 -91 -59.5 -155.5t-164.5 -64.5q-88 0 -149 52t-61 138q0 105 108 184q45 33 58 60t13 77v25h82v-28q0 -75 -23.5 -114t-88.5 -89q-61 -47 -61 -116q0 -44 30 -76q34 -36 92 -36q63 0 98.5 41t35.5 102h90z" />
    <glyph glyph-name="Agrave" unicode="&#xc0;" horiz-adv-x="621" 
d="M613 0h-92l-58 168h-308l-57 -168h-90l250 709h104zM434 252l-126 368l-125 -368h251zM407 802l-31 -47l-185 99l45 71z" />
    <glyph glyph-name="Aacute" unicode="&#xc1;" horiz-adv-x="621" 
d="M613 0h-92l-58 168h-308l-57 -168h-90l250 709h104zM434 252l-126 368l-125 -368h251zM407 853l-185 -99l-30 47l170 123z" />
    <glyph glyph-name="Acircumflex" unicode="&#xc2;" horiz-adv-x="621" 
d="M613 0h-92l-58 168h-308l-57 -168h-90l250 709h104zM434 252l-126 368l-125 -368h251zM332 915l128 -113l-46 -48l-110 98l-108 -98l-46 48l125 113h57z" />
    <glyph glyph-name="Atilde" unicode="&#xc3;" horiz-adv-x="621" 
d="M613 0h-92l-58 168h-308l-57 -168h-90l250 709h104zM434 252l-126 368l-125 -368h251zM466 835q-42 -54 -101 -54q-34 0 -72 21t-59 21q-34 0 -62 -28l-39 42q48 54 102 54q29 0 69 -22t62 -22q37 0 63 30z" />
    <glyph glyph-name="Adieresis" unicode="&#xc4;" horiz-adv-x="621" 
d="M613 0h-92l-58 168h-308l-57 -168h-90l250 709h104zM434 252l-126 368l-125 -368h251zM442 789h-92v92h92v-92zM266 789h-92v92h92v-92z" />
    <glyph glyph-name="Aring" unicode="&#xc5;" horiz-adv-x="621" 
d="M613 0h-92l-58 168h-308l-57 -168h-90l236 669q-56 33 -56 101q0 48 33 83t88 35t88.5 -35t33.5 -83q0 -65 -55 -100zM369 770q0 26 -16.5 44t-43.5 18t-43.5 -18t-16.5 -44t16.5 -43.5t43.5 -17.5t43.5 17.5t16.5 43.5zM434 252l-126 368l-125 -368h251z" />
    <glyph glyph-name="AE" unicode="&#xc6;" horiz-adv-x="914" 
d="M863 0h-428v189h-254l-83 -189h-98l320 709h543v-83h-338v-205h289v-84h-289v-253h338v-84zM435 273v356h-60l-157 -356h217z" />
    <glyph glyph-name="Ccedilla" unicode="&#xc7;" horiz-adv-x="634" 
d="M594 226q-4 -97 -70 -164q-34 -34 -84 -55t-106 -21q-114 0 -192 76q-53 52 -71 122.5t-18 169.5t18 169.5t71 122.5q78 76 192 76q116 0 189 -73q66 -67 70 -162h-92q-1 57 -39 99q-47 52 -128 52q-77 0 -129 -54q-27 -28 -41 -72t-16.5 -76.5t-2.5 -81.5t2.5 -81.5
t16.5 -76.5t41 -72q52 -54 129 -54q80 0 129 54q37 42 39 102h92zM391 -61l-69 -176l-88 41l79 135h78z" />
    <glyph glyph-name="Egrave" unicode="&#xc8;" horiz-adv-x="625" 
d="M574 0h-474v709h474v-82h-385v-216h338v-84h-338v-245h385v-82zM441 807l-31 -47l-185 99l45 71z" />
    <glyph glyph-name="Eacute" unicode="&#xc9;" horiz-adv-x="625" 
d="M574 0h-474v709h474v-82h-385v-216h338v-84h-338v-245h385v-82zM446 853l-185 -99l-30 47l170 123z" />
    <glyph glyph-name="Ecircumflex" unicode="&#xca;" horiz-adv-x="625" 
d="M574 0h-474v709h474v-82h-385v-216h338v-84h-338v-245h385v-82zM363 915l128 -113l-46 -48l-110 98l-108 -98l-46 48l125 113h57z" />
    <glyph glyph-name="Edieresis" unicode="&#xcb;" horiz-adv-x="625" 
d="M574 0h-474v709h474v-82h-385v-216h338v-84h-338v-245h385v-82zM477 789h-92v92h92v-92zM301 789h-92v92h92v-92z" />
    <glyph glyph-name="Igrave" unicode="&#xcc;" horiz-adv-x="291" 
d="M191 0h-91v709h91v-709zM252 802l-31 -47l-185 99l45 71z" />
    <glyph glyph-name="Iacute" unicode="&#xcd;" horiz-adv-x="291" 
d="M191 0h-91v709h91v-709zM256 853l-185 -99l-30 47l170 123z" />
    <glyph glyph-name="Icircumflex" unicode="&#xce;" horiz-adv-x="291" 
d="M191 0h-91v709h91v-709zM172 915l128 -113l-46 -48l-110 98l-108 -98l-46 48l125 113h57z" />
    <glyph glyph-name="Idieresis" unicode="&#xcf;" horiz-adv-x="291" 
d="M191 0h-91v709h91v-709zM280 789h-92v92h92v-92zM104 789h-92v92h92v-92z" />
    <glyph glyph-name="Eth" unicode="&#xd0;" horiz-adv-x="690" 
d="M637 355q0 -197 -91 -284q-74 -71 -186 -71h-247v335h-73v66h73v308h247q111 0 186 -72q91 -86 91 -282zM547 355q0 73 -11.5 128.5t-49.5 94.5q-49 49 -126 49h-158v-226h146v-66h-146v-253h158q77 0 126 49q61 62 61 224z" />
    <glyph glyph-name="Ntilde" unicode="&#xd1;" horiz-adv-x="734" 
d="M634 0h-100l-348 570v-570h-86v709h100l348 -572v572h86v-709zM526 827q-42 -54 -101 -54q-34 0 -72 21t-59 21q-34 0 -62 -28l-39 42q48 54 102 54q29 0 69 -22t62 -22q37 0 63 30z" />
    <glyph glyph-name="Ograve" unicode="&#xd2;" horiz-adv-x="670" 
d="M617 354q0 -98 -19 -169t-72 -123q-78 -76 -191 -76t-191 76q-53 52 -72 123t-19 169t19 169t72 123q78 76 191 76t191 -76q53 -52 72 -123t19 -169zM525 354q0 48 -2.5 81t-17 77t-41.5 72q-51 53 -129 53t-129 -53q-27 -28 -41.5 -72t-17 -77t-2.5 -81t2.5 -81t17 -77
t41.5 -72q51 -53 129 -53t129 53q27 28 41.5 72t17 77t2.5 81zM441 807l-31 -47l-185 99l45 71z" />
    <glyph glyph-name="Oacute" unicode="&#xd3;" horiz-adv-x="670" 
d="M617 354q0 -98 -19 -169t-72 -123q-78 -76 -191 -76t-191 76q-53 52 -72 123t-19 169t19 169t72 123q78 76 191 76t191 -76q53 -52 72 -123t19 -169zM525 354q0 48 -2.5 81t-17 77t-41.5 72q-51 53 -129 53t-129 -53q-27 -28 -41.5 -72t-17 -77t-2.5 -81t2.5 -81t17 -77
t41.5 -72q51 -53 129 -53t129 53q27 28 41.5 72t17 77t2.5 81zM442 858l-185 -99l-30 47l170 123z" />
    <glyph glyph-name="Ocircumflex" unicode="&#xd4;" horiz-adv-x="670" 
d="M617 354q0 -98 -19 -169t-72 -123q-78 -76 -191 -76t-191 76q-53 52 -72 123t-19 169t19 169t72 123q78 76 191 76t191 -76q53 -52 72 -123t19 -169zM525 354q0 48 -2.5 81t-17 77t-41.5 72q-51 53 -129 53t-129 -53q-27 -28 -41.5 -72t-17 -77t-2.5 -81t2.5 -81t17 -77
t41.5 -72q51 -53 129 -53t129 53q27 28 41.5 72t17 77t2.5 81zM366 915l128 -113l-46 -48l-110 98l-108 -98l-46 48l125 113h57z" />
    <glyph glyph-name="Otilde" unicode="&#xd5;" horiz-adv-x="670" 
d="M617 354q0 -98 -19 -169t-72 -123q-78 -76 -191 -76t-191 76q-53 52 -72 123t-19 169t19 169t72 123q78 76 191 76t191 -76q53 -52 72 -123t19 -169zM525 354q0 48 -2.5 81t-17 77t-41.5 72q-51 53 -129 53t-129 -53q-27 -28 -41.5 -72t-17 -77t-2.5 -81t2.5 -81t17 -77
t41.5 -72q51 -53 129 -53t129 53q27 28 41.5 72t17 77t2.5 81zM502 834q-42 -54 -101 -54q-34 0 -72 21t-59 21q-34 0 -62 -28l-39 42q48 54 102 54q29 0 69 -22t62 -22q37 0 63 30z" />
    <glyph glyph-name="Odieresis" unicode="&#xd6;" horiz-adv-x="670" 
d="M617 354q0 -98 -19 -169t-72 -123q-78 -76 -191 -76t-191 76q-53 52 -72 123t-19 169t19 169t72 123q78 76 191 76t191 -76q53 -52 72 -123t19 -169zM525 354q0 48 -2.5 81t-17 77t-41.5 72q-51 53 -129 53t-129 -53q-27 -28 -41.5 -72t-17 -77t-2.5 -81t2.5 -81t17 -77
t41.5 -72q51 -53 129 -53t129 53q27 28 41.5 72t17 77t2.5 81zM472 791h-92v92h92v-92zM296 791h-92v92h92v-92z" />
    <glyph glyph-name="multiply" unicode="&#xd7;" horiz-adv-x="682" 
d="M617 76l-54 -54l-222 222l-222 -222l-54 54l222 222l-222 222l54 54l221 -222l223 222l54 -54l-223 -222z" />
    <glyph glyph-name="Oslash" unicode="&#xd8;" horiz-adv-x="670" 
d="M617 354q0 -98 -19 -169t-72 -123q-78 -76 -191 -76q-69 0 -127 30l-39 -85l-56 26l43 94l-12 11q-53 52 -72 123t-19 169t19 169t72 123q78 76 191 76q63 0 116 -25l32 71l55 -25l-35 -77q12 -9 23 -20q53 -52 72 -123t19 -169zM525 354q0 48 -2.5 80.5t-17 76.5
t-40.5 72l-221 -488q40 -24 91 -24q78 0 129 53q27 28 41.5 72t17 77t2.5 81zM415 619q-37 18 -80 18q-78 0 -129 -53q-27 -28 -41.5 -72t-17 -77t-2.5 -81q0 -153 50 -217z" />
    <glyph glyph-name="Ugrave" unicode="&#xd9;" horiz-adv-x="678" 
d="M598 260q0 -131 -69 -202t-190 -71t-190 71t-69 202v449h89v-451q0 -188 170 -188t170 188v451h89v-449zM433 802l-31 -47l-185 99l45 71z" />
    <glyph glyph-name="Uacute" unicode="&#xda;" horiz-adv-x="678" 
d="M598 260q0 -131 -69 -202t-190 -71t-190 71t-69 202v449h89v-451q0 -188 170 -188t170 188v451h89v-449zM454 853l-185 -99l-30 47l170 123z" />
    <glyph glyph-name="Ucircumflex" unicode="&#xdb;" horiz-adv-x="678" 
d="M598 260q0 -131 -69 -202t-190 -71t-190 71t-69 202v449h89v-451q0 -188 170 -188t170 188v451h89v-449zM375 915l128 -113l-46 -48l-110 98l-108 -98l-46 48l125 113h57z" />
    <glyph glyph-name="Udieresis" unicode="&#xdc;" horiz-adv-x="678" 
d="M598 260q0 -131 -69 -202t-190 -71t-190 71t-69 202v449h89v-451q0 -188 170 -188t170 188v451h89v-449zM484 790h-92v92h92v-92zM308 790h-92v92h92v-92z" />
    <glyph glyph-name="Yacute" unicode="&#xdd;" horiz-adv-x="566" 
d="M397 847l-186 -98l-29 48l170 123zM566 709l-238 -421v-288h-90v288l-238 421h100l186 -337l185 337h95z" />
    <glyph glyph-name="Thorn" unicode="&#xde;" horiz-adv-x="607" 
d="M577 363q0 -102 -59 -161t-173 -59h-155v-143h-90v710h90v-133h154q120 0 179 -64q54 -59 54 -150zM485 363q0 133 -143 133h-152v-272h153q76 0 109 34t33 105z" />
    <glyph glyph-name="germandbls" unicode="&#xdf;" horiz-adv-x="608" 
d="M563 208q0 -99 -62 -156.5t-160 -57.5q-48 0 -84 8v71q28 -5 67 -5q68 0 109.5 35t41.5 105q0 76 -43.5 111t-116.5 35h-28v74h28q47 0 80 34.5t33 85.5t-29.5 81.5t-83.5 30.5q-62 0 -90.5 -42.5t-28.5 -114.5v-503h-86v430h-85v76h86q0 106 54 166t150 60
q91 0 145.5 -51t54.5 -133q0 -55 -30 -97.5t-79 -55.5q70 -9 113.5 -62.5t43.5 -124.5z" />
    <glyph glyph-name="agrave" unicode="&#xe0;" horiz-adv-x="559" 
d="M517 5q-24 -12 -56 -12q-33 0 -53 22t-20 55h-2q-22 -38 -66 -60.5t-97 -22.5q-82 0 -128 46.5t-46 109.5q0 36 15 68.5t57.5 59t107.5 30.5l154 9v37q0 53 -26 77q-28 26 -83 26q-62 0 -92 -30q-25 -25 -25 -61h-83q1 62 44 106q51 54 156 54q136 0 178 -97
q15 -34 15 -78v-245q0 -34 28 -34l22 3v-63zM383 214v30l-136 -8q-45 -3 -78 -25t-33 -66q0 -37 24.5 -62t75.5 -25q64 0 104 41q43 44 43 115zM355 554l-185 100l45 71l170 -124z" />
    <glyph glyph-name="aacute" unicode="&#xe1;" horiz-adv-x="559" 
d="M517 5q-24 -12 -56 -12q-33 0 -53 22t-20 55h-2q-22 -38 -66 -60.5t-97 -22.5q-82 0 -128 46.5t-46 109.5q0 36 15 68.5t57.5 59t107.5 30.5l154 9v37q0 53 -26 77q-28 26 -83 26q-62 0 -92 -30q-25 -25 -25 -61h-83q1 62 44 106q51 54 156 54q136 0 178 -97
q15 -34 15 -78v-245q0 -34 28 -34l22 3v-63zM383 214v30l-136 -8q-45 -3 -78 -25t-33 -66q0 -37 24.5 -62t75.5 -25q64 0 104 41q43 44 43 115zM379 654l-185 -99l-30 47l170 123z" />
    <glyph glyph-name="acircumflex" unicode="&#xe2;" horiz-adv-x="559" 
d="M517 5q-24 -12 -56 -12q-33 0 -53 22t-20 55h-2q-22 -38 -66 -60.5t-97 -22.5q-82 0 -128 46.5t-46 109.5q0 36 15 68.5t57.5 59t107.5 30.5l154 9v37q0 53 -26 77q-28 26 -83 26q-62 0 -92 -30q-25 -25 -25 -61h-83q1 62 44 106q51 54 156 54q136 0 178 -97
q15 -34 15 -78v-245q0 -34 28 -34l22 3v-63zM383 214v30l-136 -8q-45 -3 -78 -25t-33 -66q0 -37 24.5 -62t75.5 -25q64 0 104 41q43 44 43 115zM299 712l111 -117l-48 -44l-90 94l-88 -94l-50 44l110 117h55z" />
    <glyph glyph-name="atilde" unicode="&#xe3;" horiz-adv-x="559" 
d="M517 5q-24 -12 -56 -12q-33 0 -53 22t-20 55h-2q-22 -38 -66 -60.5t-97 -22.5q-82 0 -128 46.5t-46 109.5q0 36 15 68.5t57.5 59t107.5 30.5l154 9v37q0 53 -26 77q-28 26 -83 26q-62 0 -92 -30q-25 -25 -25 -61h-83q1 62 44 106q51 54 156 54q136 0 178 -97
q15 -34 15 -78v-245q0 -34 28 -34l22 3v-63zM383 214v30l-136 -8q-45 -3 -78 -25t-33 -66q0 -37 24.5 -62t75.5 -25q64 0 104 41q43 44 43 115zM443 647q-42 -54 -101 -54q-34 0 -72 21t-59 21q-34 0 -62 -28l-39 42q48 54 102 54q29 0 69 -22t62 -22q37 0 63 30z" />
    <glyph glyph-name="adieresis" unicode="&#xe4;" horiz-adv-x="559" 
d="M517 5q-24 -12 -56 -12q-33 0 -53 22t-20 55h-2q-22 -38 -66 -60.5t-97 -22.5q-82 0 -128 46.5t-46 109.5q0 36 15 68.5t57.5 59t107.5 30.5l154 9v37q0 53 -26 77q-28 26 -83 26q-62 0 -92 -30q-25 -25 -25 -61h-83q1 62 44 106q51 54 156 54q136 0 178 -97
q15 -34 15 -78v-245q0 -34 28 -34l22 3v-63zM383 214v30l-136 -8q-45 -3 -78 -25t-33 -66q0 -37 24.5 -62t75.5 -25q64 0 104 41q43 44 43 115zM413 602h-92v92h92v-92zM237 602h-92v92h92v-92z" />
    <glyph glyph-name="aring" unicode="&#xe5;" horiz-adv-x="559" 
d="M517 5q-24 -12 -56 -12q-33 0 -53 22t-20 55h-2q-22 -38 -66 -60.5t-97 -22.5q-82 0 -128 46.5t-46 109.5q0 36 15 68.5t57.5 59t107.5 30.5l154 9v37q0 53 -26 77q-28 26 -83 26q-62 0 -92 -30q-25 -25 -25 -61h-83q1 62 44 106q51 54 156 54q136 0 178 -97
q15 -34 15 -78v-245q0 -34 28 -34l22 3v-63zM383 214v30l-136 -8q-45 -3 -78 -25t-33 -66q0 -37 24.5 -62t75.5 -25q64 0 104 41q43 44 43 115zM390 671q0 -43 -30 -75t-80 -32t-80 32t-30 75t30 75t80 32t80 -32t30 -75zM334 671q0 23 -15 39.5t-39 16.5t-39.5 -16.5
t-15.5 -39.5t15.5 -39t39.5 -16t39 16t15 39z" />
    <glyph glyph-name="ae" unicode="&#xe6;" horiz-adv-x="847" 
d="M797 230l-342 -1q-1 -73 32 -123t104 -50q40 0 72 23.5t42 68.5h84q-10 -74 -65 -120q-51 -43 -132 -43q-61 0 -108.5 25t-70.5 72q-55 -96 -182 -96q-87 0 -139 52q-43 45 -43 107q0 67 47.5 108.5t114.5 42.5l162 2v54q0 49 -29 73.5t-78 24.5q-50 0 -80.5 -22.5
t-33.5 -68.5h-83q4 81 61 121.5t137 40.5q48 0 92.5 -19t69.5 -56q52 73 158 73q113 0 171 -89q39 -59 39 -174v-26zM711 296q-2 75 -33 113q-32 41 -92 41q-52 0 -87 -37q-42 -43 -42 -117h254zM376 234l-145 -1q-41 0 -68.5 -23.5t-27.5 -63.5q0 -41 27 -64t68 -23
q68 0 105 37q20 20 29.5 45t10.5 40.5t1 52.5z" />
    <glyph glyph-name="ccedilla" unicode="&#xe7;" horiz-adv-x="532" 
d="M486 170q-6 -76 -59 -128q-57 -55 -146 -55q-120 0 -185 95q-42 62 -42 171t42 171q65 95 184 95q88 0 144 -54q54 -53 60 -130h-86q-6 49 -36 79q-33 31 -82 31q-50 0 -88 -33q-51 -43 -51 -159t51 -159q38 -33 88 -33q54 0 86 34q29 30 34 75h86zM337 -62l-66 -171
l-86 40l77 131h75z" />
    <glyph glyph-name="egrave" unicode="&#xe8;" horiz-adv-x="551" 
d="M501 276l-1 -51h-358q0 -78 49 -127q36 -36 93 -36q62 0 94 33q21 21 30 55h83q-11 -79 -78 -125q-57 -38 -129 -38q-104 0 -168 76q-63 73 -63 188q0 97 39 162q28 48 77.5 77t113.5 29q94 0 154 -65q66 -72 64 -178zM414 298q0 61 -31 103q-35 46 -100 46t-101 -44
t-38 -105h270zM363 556l-185 99l45 71l170 -123z" />
    <glyph glyph-name="eacute" unicode="&#xe9;" horiz-adv-x="551" 
d="M501 276l-1 -51h-358q0 -78 49 -127q36 -36 93 -36q62 0 94 33q21 21 30 55h83q-11 -79 -78 -125q-57 -38 -129 -38q-104 0 -168 76q-63 73 -63 188q0 97 39 162q28 48 77.5 77t113.5 29q94 0 154 -65q66 -72 64 -178zM414 298q0 61 -31 103q-35 46 -100 46t-101 -44
t-38 -105h270zM394 652l-185 -99l-30 47l170 123z" />
    <glyph glyph-name="ecircumflex" unicode="&#xea;" horiz-adv-x="551" 
d="M501 276l-1 -51h-358q0 -78 49 -127q36 -36 93 -36q62 0 94 33q21 21 30 55h83q-11 -79 -78 -125q-57 -38 -129 -38q-104 0 -168 76q-63 73 -63 188q0 97 39 162q28 48 77.5 77t113.5 29q94 0 154 -65q66 -72 64 -178zM414 298q0 61 -31 103q-35 46 -100 46t-101 -44
t-38 -105h270zM311 712l111 -117l-48 -44l-90 94l-88 -94l-50 44l110 117h55z" />
    <glyph glyph-name="edieresis" unicode="&#xeb;" horiz-adv-x="551" 
d="M501 276l-1 -51h-358q0 -78 49 -127q36 -36 93 -36q62 0 94 33q21 21 30 55h83q-11 -79 -78 -125q-57 -38 -129 -38q-104 0 -168 76q-63 73 -63 188q0 97 39 162q28 48 77.5 77t113.5 29q94 0 154 -65q66 -72 64 -178zM414 298q0 61 -31 103q-35 46 -100 46t-101 -44
t-38 -105h270zM419 599h-92v92h92v-92zM243 599h-92v92h92v-92z" />
    <glyph glyph-name="igrave" unicode="&#xec;" horiz-adv-x="273" 
d="M178 0h-86v506h86v-506zM193 550l-185 99l45 71l170 -123z" />
    <glyph glyph-name="iacute" unicode="&#xed;" horiz-adv-x="273" 
d="M166 0h-86v506h86v-506zM251 650l-185 -99l-30 47l170 123z" />
    <glyph glyph-name="icircumflex" unicode="&#xee;" horiz-adv-x="273" 
d="M182 0h-86v506h86v-506zM163 712l111 -117l-48 -44l-90 94l-88 -94l-50 44l110 117h55z" />
    <glyph glyph-name="idieresis" unicode="&#xef;" horiz-adv-x="273" 
d="M179 0h-86v506h86v-506zM271 599h-92v92h92v-92zM95 599h-92v92h92v-92z" />
    <glyph glyph-name="eth" unicode="&#xf0;" horiz-adv-x="551" 
d="M497 253q0 -140 -68 -207q-61 -59 -154 -59q-92 0 -153 59q-68 67 -68 207t68 207q61 59 153 59l43 -4l-43 73h-120v59h85l-45 75h89l44 -75h98v-59h-63l83 -142q51 -86 51 -193zM412 253q0 110 -46 157q-36 36 -91 36q-54 0 -90 -36q-46 -47 -46 -157t46 -157
q36 -36 90 -36q55 0 91 36q46 47 46 157z" />
    <glyph glyph-name="ntilde" unicode="&#xf1;" horiz-adv-x="585" 
d="M502 0h-85v321q0 121 -111 121q-73 0 -110 -78q-18 -39 -18 -129v-235h-85v506h74l7 -76q19 41 63 65t90 24q85 0 130 -48.5t45 -137.5v-333zM465 647q-42 -54 -101 -54q-34 0 -72 21t-59 21q-34 0 -62 -28l-39 42q48 54 102 54q29 0 69 -22t62 -22q37 0 63 30z" />
    <glyph glyph-name="ograve" unicode="&#xf2;" horiz-adv-x="558" 
d="M504 253q0 -136 -72 -207q-61 -59 -153 -59t-153 59q-72 71 -72 207t72 207q61 59 153 59t153 -59q72 -71 72 -207zM417 253q0 109 -47 157q-36 36 -91 36t-91 -36q-47 -48 -47 -157t47 -157q36 -36 91 -36t91 36q47 48 47 157zM360 554l-185 99l45 71l170 -123z" />
    <glyph glyph-name="oacute" unicode="&#xf3;" horiz-adv-x="558" 
d="M504 253q0 -136 -72 -207q-61 -59 -153 -59t-153 59q-72 71 -72 207t72 207q61 59 153 59t153 -59q72 -71 72 -207zM417 253q0 109 -47 157q-36 36 -91 36t-91 -36q-47 -48 -47 -157t47 -157q36 -36 91 -36t91 36q47 48 47 157zM389 653l-185 -99l-30 47l170 123z" />
    <glyph glyph-name="ocircumflex" unicode="&#xf4;" horiz-adv-x="558" 
d="M504 253q0 -136 -72 -207q-61 -59 -153 -59t-153 59q-72 71 -72 207t72 207q61 59 153 59t153 -59q72 -71 72 -207zM417 253q0 109 -47 157q-36 36 -91 36t-91 -36q-47 -48 -47 -157t47 -157q36 -36 91 -36t91 36q47 48 47 157zM306 712l111 -117l-48 -44l-90 94l-88 -94
l-50 44l110 117h55z" />
    <glyph glyph-name="otilde" unicode="&#xf5;" horiz-adv-x="558" 
d="M504 253q0 -136 -72 -207q-61 -59 -153 -59t-153 59q-72 71 -72 207t72 207q61 59 153 59t153 -59q72 -71 72 -207zM417 253q0 109 -47 157q-36 36 -91 36t-91 -36q-47 -48 -47 -157t47 -157q36 -36 91 -36t91 36q47 48 47 157zM447 653q-42 -54 -101 -54q-34 0 -72 21
t-59 21q-34 0 -62 -28l-39 42q48 54 102 54q29 0 69 -22t62 -22q37 0 63 30z" />
    <glyph glyph-name="odieresis" unicode="&#xf6;" horiz-adv-x="558" 
d="M504 253q0 -136 -72 -207q-61 -59 -153 -59t-153 59q-72 71 -72 207t72 207q61 59 153 59t153 -59q72 -71 72 -207zM417 253q0 109 -47 157q-36 36 -91 36t-91 -36q-47 -48 -47 -157t47 -157q36 -36 91 -36t91 36q47 48 47 157zM422 599h-92v92h92v-92zM246 599h-92v92
h92v-92z" />
    <glyph glyph-name="divide" unicode="&#xf7;" horiz-adv-x="652" 
d="M381 442h-114v118h114v-118zM577 261h-502v78h502v-78zM381 48h-114v118h114v-118z" />
    <glyph glyph-name="oslash" unicode="&#xf8;" horiz-adv-x="558" 
d="M504 253q0 -136 -72 -207q-61 -59 -153 -59q-47 0 -84 15l-36 -79l-54 25l38 83l-17 15q-72 71 -72 207t72 207q61 59 153 59q40 0 79 -13l36 79l54 -24l-37 -83q11 -8 21 -18q72 -71 72 -207zM417 253q0 101 -41 150l-150 -333q25 -10 53 -10q55 0 91 36q47 48 47 157z
M327 438q-22 8 -48 8q-55 0 -91 -36q-47 -48 -47 -157q0 -95 37 -145z" />
    <glyph glyph-name="ugrave" unicode="&#xf9;" horiz-adv-x="582" 
d="M489 0h-74l-7 77q-19 -42 -61 -65.5t-89 -23.5q-85 0 -129 48.5t-44 137.5v332h85v-320q0 -60 25 -90.5t83 -30.5q48 0 84 38q42 43 42 140v263h85v-506zM352 553l-185 99l45 71l170 -123z" />
    <glyph glyph-name="uacute" unicode="&#xfa;" horiz-adv-x="582" 
d="M489 0h-74l-7 77q-19 -42 -61 -65.5t-89 -23.5q-85 0 -129 48.5t-44 137.5v332h85v-320q0 -60 25 -90.5t83 -30.5q48 0 84 38q42 43 42 140v263h85v-506zM402 652l-185 -99l-30 47l170 123z" />
    <glyph glyph-name="ucircumflex" unicode="&#xfb;" horiz-adv-x="582" 
d="M489 0h-74l-7 77q-19 -42 -61 -65.5t-89 -23.5q-85 0 -129 48.5t-44 137.5v332h85v-320q0 -60 25 -90.5t83 -30.5q48 0 84 38q42 43 42 140v263h85v-506zM315 712l111 -117l-48 -44l-90 94l-88 -94l-50 44l110 117h55z" />
    <glyph glyph-name="udieresis" unicode="&#xfc;" horiz-adv-x="582" 
d="M489 0h-74l-7 77q-19 -42 -61 -65.5t-89 -23.5q-85 0 -129 48.5t-44 137.5v332h85v-320q0 -60 25 -90.5t83 -30.5q48 0 84 38q42 43 42 140v263h85v-506zM423 599h-92v92h92v-92zM247 599h-92v92h92v-92z" />
    <glyph glyph-name="yacute" unicode="&#xfd;" horiz-adv-x="498" 
d="M381 654l-187 -104l-32 47l172 129zM488 506l-228 -610q-19 -53 -51 -80.5t-86 -27.5q-42 0 -77 10v74q27 -8 60 -8q57 0 76 51l32 85l-202 506h96l149 -399l142 399h89z" />
    <glyph glyph-name="thorn" unicode="&#xfe;" horiz-adv-x="590" 
d="M536 252q0 -141 -77 -215q-54 -51 -136 -51q-43 0 -84 19.5t-61 52.5v-259h-85v923h85v-275q20 33 61 52.5t84 19.5q82 0 136 -51q77 -74 77 -216zM450 252q0 38 -6.5 70t-21.5 61.5t-44 46.5t-69 17q-43 0 -80 -33q-56 -49 -56 -162q0 -112 56 -161q37 -33 80 -33
q40 0 69 16.5t44 46t21.5 61.5t6.5 70z" />
    <glyph glyph-name="ydieresis" unicode="&#xff;" horiz-adv-x="498" 
d="M488 506l-228 -610q-19 -53 -51 -80.5t-86 -27.5q-42 0 -77 10v74q27 -8 60 -8q57 0 76 51l32 85l-202 506h96l149 -399l142 399h89zM385 599h-92v92h92v-92zM209 599h-92v92h92v-92z" />
    <glyph glyph-name="Amacron" unicode="&#x100;" horiz-adv-x="621" 
d="M613 0h-92l-58 168h-308l-57 -168h-90l250 709h104zM434 252l-126 368l-125 -368h251zM449 774h-278v68h278v-68z" />
    <glyph glyph-name="amacron" unicode="&#x101;" horiz-adv-x="559" 
d="M517 5q-24 -12 -56 -12q-33 0 -53 22t-20 55h-2q-22 -38 -66 -60.5t-97 -22.5q-82 0 -128 46.5t-46 109.5q0 36 15 68.5t57.5 59t107.5 30.5l154 9v37q0 53 -26 77q-28 26 -83 26q-62 0 -92 -30q-25 -25 -25 -61h-83q1 62 44 106q51 54 156 54q136 0 178 -97
q15 -34 15 -78v-245q0 -34 28 -34l22 3v-63zM383 214v30l-136 -8q-45 -3 -78 -25t-33 -66q0 -37 24.5 -62t75.5 -25q64 0 104 41q43 44 43 115zM418 588h-278v68h278v-68z" />
    <glyph glyph-name="Abreve" unicode="&#x102;" horiz-adv-x="621" 
d="M613 0h-92l-58 168h-308l-57 -168h-90l250 709h104zM434 252l-126 368l-125 -368h251zM475 910q-6 -69 -47.5 -112.5t-116.5 -43.5t-117 43.5t-48 112.5h68q12 -92 97 -92t96 92h68z" />
    <glyph glyph-name="abreve" unicode="&#x103;" horiz-adv-x="559" 
d="M517 5q-24 -12 -56 -12q-33 0 -53 22t-20 55h-2q-22 -38 -66 -60.5t-97 -22.5q-82 0 -128 46.5t-46 109.5q0 36 15 68.5t57.5 59t107.5 30.5l154 9v37q0 53 -26 77q-28 26 -83 26q-62 0 -92 -30q-25 -25 -25 -61h-83q1 62 44 106q51 54 156 54q136 0 178 -97
q15 -34 15 -78v-245q0 -34 28 -34l22 3v-63zM383 214v30l-136 -8q-45 -3 -78 -25t-33 -66q0 -37 24.5 -62t75.5 -25q64 0 104 41q43 44 43 115zM444 710q-6 -69 -47.5 -112.5t-116.5 -43.5t-117 43.5t-48 112.5h68q11 -92 97 -92q84 0 96 92h68z" />
    <glyph glyph-name="Aogonek" unicode="&#x104;" horiz-adv-x="621" 
d="M458 -103q0 30 15.5 55.5t28 35t20.5 12.5h-1l-58 168h-308l-57 -168h-90l250 709h104l251 -709q-35 -13 -57.5 -35.5t-22.5 -51.5q0 -43 50 -43l30 1v-58q-22 -6 -40 -7h-10q-45 0 -75 26t-30 65zM434 252l-126 368l-125 -368h251z" />
    <glyph glyph-name="aogonek" unicode="&#x105;" horiz-adv-x="559" 
d="M517 0q-35 -13 -57.5 -35.5t-22.5 -51.5q0 -43 50 -43l30 1v-58q-22 -6 -40 -7h-10q-45 0 -75 26t-30 65q0 31 16.5 56.5t29 34.5t19.5 12q-39 19 -39 70h-2q-22 -38 -66 -60.5t-97 -22.5q-82 0 -128 46.5t-46 109.5q0 36 15 68.5t57.5 59t107.5 30.5l154 9v37
q0 53 -26 77q-28 26 -83 26q-62 0 -92 -30q-25 -25 -25 -61h-83q1 62 44 106q51 54 156 54q136 0 178 -97q15 -34 15 -78v-245q0 -34 28 -34l22 3v-68zM383 214v30l-136 -8q-45 -3 -78 -25t-33 -66q0 -37 24.5 -62t75.5 -25q64 0 104 41q43 44 43 115z" />
    <glyph glyph-name="Cacute" unicode="&#x106;" horiz-adv-x="634" 
d="M594 226q-4 -97 -70 -164q-34 -34 -84 -55t-106 -21q-114 0 -192 76q-53 52 -71 122.5t-18 169.5t18 169.5t71 122.5q78 76 192 76q116 0 189 -73q66 -67 70 -162h-92q-1 57 -39 99q-47 52 -128 52q-77 0 -129 -54q-27 -28 -41 -72t-16.5 -76.5t-2.5 -81.5t2.5 -81.5
t16.5 -76.5t41 -72q52 -54 129 -54q80 0 129 54q37 42 39 102h92zM484 853l-185 -99l-30 47l170 123z" />
    <glyph glyph-name="cacute" unicode="&#x107;" horiz-adv-x="532" 
d="M486 170q-6 -76 -59 -128q-57 -55 -146 -55q-120 0 -185 95q-42 62 -42 171t42 171q65 95 184 95q88 0 144 -54q54 -53 60 -130h-86q-6 49 -36 79q-33 31 -82 31q-50 0 -88 -33q-51 -43 -51 -159t51 -159q38 -33 88 -33q54 0 86 34q29 30 34 75h86zM436 650l-185 -99
l-30 47l170 123z" />
    <glyph glyph-name="Ccircumflex" unicode="&#x108;" horiz-adv-x="634" 
d="M594 226q-4 -97 -70 -164q-34 -34 -84 -55t-106 -21q-114 0 -192 76q-53 52 -71 122.5t-18 169.5t18 169.5t71 122.5q78 76 192 76q116 0 189 -73q66 -67 70 -162h-92q-1 57 -39 99q-47 52 -128 52q-77 0 -129 -54q-27 -28 -41 -72t-16.5 -76.5t-2.5 -81.5t2.5 -81.5
t16.5 -76.5t41 -72q52 -54 129 -54q80 0 129 54q37 42 39 102h92zM360 915l128 -113l-46 -48l-110 98l-108 -98l-46 48l125 113h57z" />
    <glyph glyph-name="ccircumflex" unicode="&#x109;" horiz-adv-x="532" 
d="M486 170q-6 -76 -59 -128q-57 -55 -146 -55q-120 0 -185 95q-42 62 -42 171t42 171q65 95 184 95q88 0 144 -54q54 -53 60 -130h-86q-6 49 -36 79q-33 31 -82 31q-50 0 -88 -33q-51 -43 -51 -159t51 -159q38 -33 88 -33q54 0 86 34q29 30 34 75h86zM302 712l111 -117
l-48 -44l-90 94l-88 -94l-50 44l110 117h55z" />
    <glyph glyph-name="Cdotaccent" unicode="&#x10a;" horiz-adv-x="634" 
d="M594 226q-4 -97 -70 -164q-34 -34 -84 -55t-106 -21q-114 0 -192 76q-53 52 -71 122.5t-18 169.5t18 169.5t71 122.5q78 76 192 76q116 0 189 -73q66 -67 70 -162h-92q-1 57 -39 99q-47 52 -128 52q-77 0 -129 -54q-27 -28 -41 -72t-16.5 -76.5t-2.5 -81.5t2.5 -81.5
t16.5 -76.5t41 -72q52 -54 129 -54q80 0 129 54q37 42 39 102h92zM383 789h-92v92h92v-92z" />
    <glyph glyph-name="cdotaccent" unicode="&#x10b;" horiz-adv-x="532" 
d="M486 170q-6 -76 -59 -128q-57 -55 -146 -55q-120 0 -185 95q-42 62 -42 171t42 171q65 95 184 95q88 0 144 -54q54 -53 60 -130h-86q-6 49 -36 79q-33 31 -82 31q-50 0 -88 -33q-51 -43 -51 -159t51 -159q38 -33 88 -33q54 0 86 34q29 30 34 75h86zM322 599h-92v92h92
v-92z" />
    <glyph glyph-name="Ccaron" unicode="&#x10c;" horiz-adv-x="634" 
d="M594 226q-4 -97 -70 -164q-34 -34 -84 -55t-106 -21q-114 0 -192 76q-53 52 -71 122.5t-18 169.5t18 169.5t71 122.5q78 76 192 76q116 0 189 -73q66 -67 70 -162h-92q-1 57 -39 99q-47 52 -128 52q-77 0 -129 -54q-27 -28 -41 -72t-16.5 -76.5t-2.5 -81.5t2.5 -81.5
t16.5 -76.5t41 -72q52 -54 129 -54q80 0 129 54q37 42 39 102h92zM488 867l-128 -113h-57l-125 113l48 51l106 -97l108 97z" />
    <glyph glyph-name="ccaron" unicode="&#x10d;" horiz-adv-x="532" 
d="M486 170q-6 -76 -59 -128q-57 -55 -146 -55q-120 0 -185 95q-42 62 -42 171t42 171q65 95 184 95q88 0 144 -54q54 -53 60 -130h-86q-6 49 -36 79q-33 31 -82 31q-50 0 -88 -33q-51 -43 -51 -159t51 -159q38 -33 88 -33q54 0 86 34q29 30 34 75h86zM411 674l-111 -117
h-55l-110 117l50 44l88 -94l90 94z" />
    <glyph glyph-name="Dcaron" unicode="&#x10e;" horiz-adv-x="677" 
d="M624 355q0 -197 -91 -284q-74 -71 -186 -71h-247v709h247q111 0 186 -72q91 -86 91 -282zM534 355q0 73 -11.5 128.5t-49.5 94.5q-49 49 -126 49h-158v-545h158q77 0 126 49q61 62 61 224zM485 867l-128 -113h-57l-125 113l48 51l106 -97l108 97z" />
    <glyph glyph-name="dcaron" unicode="&#x10f;" horiz-adv-x="595" 
d="M502 0h-75l-6 66q-21 -37 -63.5 -58t-87.5 -21q-90 0 -143 55q-73 75 -73 210q0 142 77 216q54 51 139 51q43 0 85.5 -19.5t61.5 -52.5v275h85v-722zM422 253q0 112 -56 161q-37 33 -82 33q-77 0 -110 -56t-33 -138t33 -138t110 -56q45 0 82 33q56 49 56 161zM609 722
v-85q0 -72 -64 -102l-15 33q22 11 28.5 24t6.5 33v6h-33v91h77z" />
    <glyph glyph-name="Dcroat" unicode="&#x110;" horiz-adv-x="690" 
d="M637 355q0 -197 -91 -284q-74 -71 -186 -71h-247v335h-73v66h73v308h247q111 0 186 -72q91 -86 91 -282zM547 355q0 73 -11.5 128.5t-49.5 94.5q-49 49 -126 49h-158v-226h146v-66h-146v-253h158q77 0 126 49q61 62 61 224z" />
    <glyph glyph-name="dcroat" unicode="&#x111;" horiz-adv-x="595" 
d="M502 0h-75l-6 66q-21 -37 -63.5 -58t-87.5 -21q-90 0 -143 55q-73 75 -73 210q0 142 77 216q54 51 139 51q43 0 85.5 -19.5t61.5 -52.5v131h-163v63h163v81h85v-81h60v-63h-60v-578zM422 253q0 112 -56 161q-37 33 -82 33q-77 0 -110 -56t-33 -138t33 -138t110 -56
q45 0 82 33q56 49 56 161z" />
    <glyph glyph-name="Emacron" unicode="&#x112;" horiz-adv-x="625" 
d="M574 0h-474v709h474v-82h-385v-216h338v-84h-338v-245h385v-82zM479 774h-278v68h278v-68z" />
    <glyph glyph-name="emacron" unicode="&#x113;" horiz-adv-x="551" 
d="M501 276l-1 -51h-358q0 -78 49 -127q36 -36 93 -36q62 0 94 33q21 21 30 55h83q-11 -79 -78 -125q-57 -38 -129 -38q-104 0 -168 76q-63 73 -63 188q0 97 39 162q28 48 77.5 77t113.5 29q94 0 154 -65q66 -72 64 -178zM414 298q0 61 -31 103q-35 46 -100 46t-101 -44
t-38 -105h270zM424 588h-278v68h278v-68z" />
    <glyph glyph-name="Edotaccent" unicode="&#x116;" horiz-adv-x="625" 
d="M574 0h-474v709h474v-82h-385v-216h338v-84h-338v-245h385v-82zM385 789h-92v92h92v-92z" />
    <glyph glyph-name="edotaccent" unicode="&#x117;" horiz-adv-x="551" 
d="M501 276l-1 -51h-358q0 -78 49 -127q36 -36 93 -36q62 0 94 33q21 21 30 55h83q-11 -79 -78 -125q-57 -38 -129 -38q-104 0 -168 76q-63 73 -63 188q0 97 39 162q28 48 77.5 77t113.5 29q94 0 154 -65q66 -72 64 -178zM414 298q0 61 -31 103q-35 46 -100 46t-101 -44
t-38 -105h270zM321 599h-92v92h92v-92z" />
    <glyph glyph-name="Eogonek" unicode="&#x118;" horiz-adv-x="625" 
d="M418 -103q0 30 15.5 55.5t28 35t20.5 12.5h-382v709h474v-82h-385v-216h338v-84h-338v-245h385v-82h-1q-35 -13 -57.5 -35.5t-22.5 -51.5q0 -43 50 -43l30 1v-58q-22 -6 -40 -7h-10q-45 0 -75 26t-30 65z" />
    <glyph glyph-name="eogonek" unicode="&#x119;" horiz-adv-x="551" 
d="M501 276l-1 -51h-358q0 -78 49 -127q36 -36 93 -36q62 0 94 33q21 21 30 55h83q-7 -54 -46 -97q-62 -80 -62 -137q0 -46 50 -46l30 3v-60q-22 -6 -40 -7h-10q-45 0 -75 25t-30 66q0 62 46 101q-35 -11 -70 -11q-104 0 -168 76q-63 73 -63 188q0 97 39 162q28 48 77.5 77
t113.5 29q94 0 154 -65q66 -72 64 -178zM414 298q0 61 -31 103q-35 46 -100 46t-101 -44t-38 -105h270z" />
    <glyph glyph-name="Ecaron" unicode="&#x11a;" horiz-adv-x="625" 
d="M574 0h-474v709h474v-82h-385v-216h338v-84h-338v-245h385v-82zM496 867l-128 -113h-57l-125 113l48 51l106 -97l108 97z" />
    <glyph glyph-name="ecaron" unicode="&#x11b;" horiz-adv-x="551" 
d="M501 276l-1 -51h-358q0 -78 49 -127q36 -36 93 -36q62 0 94 33q21 21 30 55h83q-11 -79 -78 -125q-57 -38 -129 -38q-104 0 -168 76q-63 73 -63 188q0 97 39 162q28 48 77.5 77t113.5 29q94 0 154 -65q66 -72 64 -178zM414 298q0 61 -31 103q-35 46 -100 46t-101 -44
t-38 -105h270zM416 674l-111 -117h-55l-110 117l50 44l88 -94l90 94z" />
    <glyph glyph-name="Gcircumflex" unicode="&#x11c;" horiz-adv-x="680" 
d="M606 0h-62l-15 85q-26 -44 -79.5 -71.5t-113.5 -27.5q-117 0 -191 73q-51 50 -71.5 121.5t-20.5 173.5q0 97 19.5 168.5t72.5 123.5q78 76 191 76q128 0 203 -80q57 -60 61 -138h-93q-4 44 -32 78q-47 56 -139 56q-77 0 -129 -54q-62 -64 -62 -230q0 -168 64 -233
q50 -51 127 -51q80 0 129 49q61 60 61 180h-190v83h270v-382zM365 915l128 -113l-46 -48l-110 98l-108 -98l-46 48l125 113h57z" />
    <glyph glyph-name="gcircumflex" unicode="&#x11d;" horiz-adv-x="540" 
d="M525 -75q0 -59 -43 -102q-60 -59 -204 -59q-133 0 -192 59q-36 36 -36 90q0 76 72 112q-26 10 -42.5 33t-16.5 52q0 66 67 98q-58 52 -58 131q0 73 48 123q55 57 150 57q67 0 116 -30q13 34 40.5 52.5t63.5 18.5q9 0 25 -2v-69q-5 1 -19 1q-25 0 -41.5 -12.5t-20.5 -33.5
q33 -42 33 -105q0 -70 -46 -121q-55 -60 -151 -60q-44 0 -85 14q-40 -13 -43 -45q-1 -16 5.5 -26.5t19.5 -15t24.5 -6.5t26.5 -2h100q115 0 167 -53q40 -40 40 -99zM384 339q0 49 -31 80t-84 31q-51 0 -83 -31.5t-32 -79.5q0 -49 31 -81t84 -32q51 0 83 32t32 81zM442 -75
q0 19 -6 33.5t-19 23t-24 14t-32.5 7t-32 2t-33.5 0.5h-12h-92q-27 -9 -45.5 -30.5t-18.5 -49.5q0 -32 21 -53q35 -35 135 -35q102 0 138 36q21 21 21 52zM296 712l111 -117l-48 -44l-90 94l-88 -94l-50 44l110 117h55z" />
    <glyph glyph-name="Gbreve" unicode="&#x11e;" horiz-adv-x="680" 
d="M606 0h-62l-15 85q-26 -44 -79.5 -71.5t-113.5 -27.5q-117 0 -191 73q-51 50 -71.5 121.5t-20.5 173.5q0 97 19.5 168.5t72.5 123.5q78 76 191 76q128 0 203 -80q57 -60 61 -138h-93q-4 44 -32 78q-47 56 -139 56q-77 0 -129 -54q-62 -64 -62 -230q0 -168 64 -233
q50 -51 127 -51q80 0 129 49q61 60 61 180h-190v83h270v-382zM500 910q-6 -69 -47.5 -112.5t-116.5 -43.5t-117 43.5t-48 112.5h68q11 -92 97 -92q84 0 96 92h68z" />
    <glyph glyph-name="gbreve" unicode="&#x11f;" horiz-adv-x="540" 
d="M525 -75q0 -59 -43 -102q-60 -59 -204 -59q-133 0 -192 59q-36 36 -36 90q0 76 72 112q-26 10 -42.5 33t-16.5 52q0 66 67 98q-58 52 -58 131q0 73 48 123q55 57 150 57q67 0 116 -30q13 34 40.5 52.5t63.5 18.5q9 0 25 -2v-69q-5 1 -19 1q-25 0 -41.5 -12.5t-20.5 -33.5
q33 -42 33 -105q0 -70 -46 -121q-55 -60 -151 -60q-44 0 -85 14q-40 -13 -43 -45q-1 -16 5.5 -26.5t19.5 -15t24.5 -6.5t26.5 -2h100q115 0 167 -53q40 -40 40 -99zM384 339q0 49 -31 80t-84 31q-51 0 -83 -31.5t-32 -79.5q0 -49 31 -81t84 -32q51 0 83 32t32 81zM442 -75
q0 19 -6 33.5t-19 23t-24 14t-32.5 7t-32 2t-33.5 0.5h-12h-92q-27 -9 -45.5 -30.5t-18.5 -49.5q0 -32 21 -53q35 -35 135 -35q102 0 138 36q21 21 21 52zM434 710q-6 -69 -47.5 -112.5t-116.5 -43.5t-117 43.5t-48 112.5h68q11 -92 97 -92q84 0 96 92h68z" />
    <glyph glyph-name="Gdotaccent" unicode="&#x120;" horiz-adv-x="680" 
d="M606 0h-62l-15 85q-26 -44 -79.5 -71.5t-113.5 -27.5q-117 0 -191 73q-51 50 -71.5 121.5t-20.5 173.5q0 97 19.5 168.5t72.5 123.5q78 76 191 76q128 0 203 -80q57 -60 61 -138h-93q-4 44 -32 78q-47 56 -139 56q-77 0 -129 -54q-62 -64 -62 -230q0 -168 64 -233
q50 -51 127 -51q80 0 129 49q61 60 61 180h-190v83h270v-382zM382 789h-92v92h92v-92z" />
    <glyph glyph-name="gdotaccent" unicode="&#x121;" horiz-adv-x="540" 
d="M525 -75q0 -59 -43 -102q-60 -59 -204 -59q-133 0 -192 59q-36 36 -36 90q0 76 72 112q-26 10 -42.5 33t-16.5 52q0 66 67 98q-58 52 -58 131q0 73 48 123q55 57 150 57q67 0 116 -30q13 34 40.5 52.5t63.5 18.5q9 0 25 -2v-69q-5 1 -19 1q-25 0 -41.5 -12.5t-20.5 -33.5
q33 -42 33 -105q0 -70 -46 -121q-55 -60 -151 -60q-44 0 -85 14q-40 -13 -43 -45q-1 -16 5.5 -26.5t19.5 -15t24.5 -6.5t26.5 -2h100q115 0 167 -53q40 -40 40 -99zM384 339q0 49 -31 80t-84 31q-51 0 -83 -31.5t-32 -79.5q0 -49 31 -81t84 -32q51 0 83 32t32 81zM442 -75
q0 19 -6 33.5t-19 23t-24 14t-32.5 7t-32 2t-33.5 0.5h-12h-92q-27 -9 -45.5 -30.5t-18.5 -49.5q0 -32 21 -53q35 -35 135 -35q102 0 138 36q21 21 21 52zM316 599h-92v92h92v-92z" />
    <glyph glyph-name="Gcommaaccent" unicode="&#x122;" horiz-adv-x="680" 
d="M606 0h-62l-15 85q-26 -44 -79.5 -71.5t-113.5 -27.5q-117 0 -191 73q-51 50 -71.5 121.5t-20.5 173.5q0 97 19.5 168.5t72.5 123.5q78 76 191 76q128 0 203 -80q57 -60 61 -138h-93q-4 44 -32 78q-47 56 -139 56q-77 0 -129 -54q-62 -64 -62 -230q0 -168 64 -233
q50 -51 127 -51q80 0 129 49q61 60 61 180h-190v83h270v-382zM383 -61v-77q0 -66 -68 -85l-16 30q21 7 29.5 17.5t8.5 32.5h-39v82h85z" />
    <glyph glyph-name="gcommaaccent" unicode="&#x123;" horiz-adv-x="540" 
d="M525 -75q0 -59 -43 -102q-60 -59 -204 -59q-133 0 -192 59q-36 36 -36 90q0 76 72 112q-26 10 -42.5 33t-16.5 52q0 66 67 98q-58 52 -58 131q0 73 48 123q55 57 150 57q67 0 116 -30q13 34 40.5 52.5t63.5 18.5q9 0 25 -2v-69q-5 1 -19 1q-25 0 -41.5 -12.5t-20.5 -33.5
q33 -42 33 -105q0 -70 -46 -121q-55 -60 -151 -60q-44 0 -85 14q-40 -13 -43 -45q-1 -16 5.5 -26.5t19.5 -15t24.5 -6.5t26.5 -2h100q115 0 167 -53q40 -40 40 -99zM384 339q0 49 -31 80t-84 31q-51 0 -83 -31.5t-32 -79.5q0 -49 31 -81t84 -32q51 0 83 32t32 81zM442 -75
q0 19 -6 33.5t-19 23t-24 14t-32.5 7t-32 2t-33.5 0.5h-12h-92q-27 -9 -45.5 -30.5t-18.5 -49.5q0 -32 21 -53q35 -35 135 -35q102 0 138 36q21 21 21 52zM228 557v77q0 66 68 85l16 -30q-21 -7 -29.5 -17.5t-8.5 -32.5h39v-82h-85z" />
    <glyph glyph-name="Hcircumflex" unicode="&#x124;" horiz-adv-x="718" 
d="M618 0h-89v327h-340v-327h-89v709h89v-296h340v296h89v-709zM384 915l128 -113l-46 -48l-110 98l-108 -98l-46 48l125 113h57z" />
    <glyph glyph-name="hcircumflex" unicode="&#x125;" horiz-adv-x="587" 
d="M502 0h-85v321q0 121 -111 121q-73 0 -110 -78q-18 -39 -18 -129v-235h-85v722h85v-283q22 38 63 59t85 21q85 0 130.5 -48.5t45.5 -137.5v-333zM180 886l111 -117l-48 -44l-90 94l-88 -94l-50 44l110 117h55z" />
    <glyph glyph-name="Hbar" unicode="&#x126;" horiz-adv-x="718" 
d="M618 0h-89v327h-340v-327h-89v490h-59v68h59v151h89v-151h340v151h89v-151h62v-68h-62v-490zM189 413h340v77h-340v-77z" />
    <glyph glyph-name="hbar" unicode="&#x127;" horiz-adv-x="587" 
d="M502 0h-85v321q0 121 -111 121q-73 0 -110 -78q-18 -39 -18 -129v-235h-85v568h-58v63h58v91h85v-91h163v-63h-163v-129q22 38 63 59t85 21q85 0 130.5 -48.5t45.5 -137.5v-333z" />
    <glyph glyph-name="Imacron" unicode="&#x12a;" horiz-adv-x="291" 
d="M191 0h-91v709h91v-709zM284 774h-278v68h278v-68z" />
    <glyph glyph-name="imacron" unicode="&#x12b;" horiz-adv-x="273" 
d="M180 0h-86v506h86v-506zM276 588h-278v68h278v-68z" />
    <glyph glyph-name="Iogonek" unicode="&#x12e;" horiz-adv-x="291" 
d="M36 -103q0 30 15.5 55.5t28 35t20.5 12.5v709h91v-709q-35 -13 -57.5 -35.5t-22.5 -51.5q0 -43 50 -43l30 1v-58q-22 -6 -40 -7h-10q-45 0 -75 26t-30 65z" />
    <glyph glyph-name="iogonek" unicode="&#x12f;" horiz-adv-x="273" 
d="M25 -103q0 31 16.5 56.5t29 34.5t19.5 12q2 0 3 1v505h87v-506q-35 -13 -57.5 -35.5t-22.5 -51.5q0 -43 50 -43l30 1v-58q-22 -6 -40 -7h-10q-45 0 -75 26t-30 65zM186 622h-99v100h99v-100z" />
    <glyph glyph-name="Idotaccent" unicode="&#x130;" horiz-adv-x="291" 
d="M191 0h-91v709h91v-709zM191 789h-92v92h92v-92z" />
    <glyph glyph-name="dotlessi" unicode="&#x131;" horiz-adv-x="273" 
d="M180 0h-86v506h86v-506z" />
    <glyph glyph-name="Jcircumflex" unicode="&#x134;" horiz-adv-x="493" 
d="M413 198q0 -97 -52.5 -154t-147.5 -57q-90 0 -148 60q-57 58 -57 168h90q0 -81 37 -116q31 -29 78 -29q111 0 111 128v511h89v-511zM352 915l128 -113l-46 -48l-110 98l-108 -98l-46 48l125 113h57z" />
    <glyph glyph-name="jcircumflex" unicode="&#x135;" horiz-adv-x="283" 
d="M190 -71q0 -68 -34.5 -105.5t-104.5 -37.5q-35 0 -66 10v73q26 -5 63 -5q27 0 42 18.5t15 45.5v578h85v-577zM168 712l111 -117l-48 -44l-90 94l-88 -94l-50 44l110 117h55z" />
    <glyph glyph-name="Kcommaaccent" unicode="&#x136;" horiz-adv-x="662" 
d="M649 0h-104l-212 368l-144 -168v-200h-89v709h89v-378l325 378h111l-231 -270zM394 -61v-77q0 -66 -68 -85l-16 30q21 7 29.5 17.5t8.5 32.5h-39v82h85z" />
    <glyph glyph-name="kcommaaccent" unicode="&#x137;" horiz-adv-x="545" 
d="M529 0h-96l-158 244l-97 -108v-136h-85v722h85v-471l229 255h103l-180 -200zM336 -61v-77q0 -66 -68 -85l-16 30q21 7 29.5 17.5t8.5 32.5h-39v82h85z" />
    <glyph glyph-name="Lacute" unicode="&#x139;" horiz-adv-x="544" 
d="M530 0h-430v709h89v-626h341v-83zM315 853l-185 -99l-30 47l170 123z" />
    <glyph glyph-name="lacute" unicode="&#x13a;" horiz-adv-x="291" 
d="M256 0q-19 -6 -60 -6q-106 0 -106 124v604h85v-599q0 -27 10.5 -39.5t35.5 -12.5l35 1v-72zM293 853l-185 -99l-30 47l170 123z" />
    <glyph glyph-name="Lcommaaccent" unicode="&#x13b;" horiz-adv-x="544" 
d="M530 0h-430v709h89v-626h341v-83zM355 -61v-77q0 -66 -68 -85l-16 30q21 7 29.5 17.5t8.5 32.5h-39v82h85z" />
    <glyph glyph-name="lcommaaccent" unicode="&#x13c;" horiz-adv-x="291" 
d="M256 0q-19 -6 -60 -6q-106 0 -106 124v604h85v-599q0 -27 10.5 -39.5t35.5 -12.5l35 1v-72zM188 -61v-77q0 -66 -68 -85l-16 30q21 7 29.5 17.5t8.5 32.5h-39v82h85z" />
    <glyph glyph-name="Lcaron" unicode="&#x13d;" horiz-adv-x="544" 
d="M530 0h-430v709h89v-626h341v-83zM327 772v-85q0 -72 -64 -102l-15 33q22 11 28.5 24t6.5 33v6h-33v91h77z" />
    <glyph glyph-name="lcaron" unicode="&#x13e;" horiz-adv-x="291" 
d="M256 0q-19 -6 -60 -6q-106 0 -106 124v604h85v-599q0 -27 10.5 -39.5t35.5 -12.5l35 1v-72zM282 722v-85q0 -72 -64 -102l-15 33q22 11 28.5 24t6.5 33v6h-33v91h77z" />
    <glyph glyph-name="Lslash" unicode="&#x141;" horiz-adv-x="565" 
d="M551 0h-430v296l-65 -40l-33 52l98 61v340h89v-285l127 79l33 -53l-160 -99v-268h341v-83z" />
    <glyph glyph-name="lslash" unicode="&#x142;" horiz-adv-x="333" 
d="M308 466l-113 -70v-273q0 -27 10.5 -39.5t35.5 -12.5l35 1v-72q-19 -6 -60 -6q-106 0 -106 124v225l-57 -35l-33 52l90 56v306h85v-253l80 50z" />
    <glyph glyph-name="Nacute" unicode="&#x143;" horiz-adv-x="734" 
d="M634 0h-100l-348 570v-570h-86v709h100l348 -572v572h86v-709zM514 853l-185 -99l-30 47l170 123z" />
    <glyph glyph-name="nacute" unicode="&#x144;" horiz-adv-x="585" 
d="M502 0h-85v321q0 121 -111 121q-73 0 -110 -78q-18 -39 -18 -129v-235h-85v506h74l7 -76q19 41 63 65t90 24q85 0 130 -48.5t45 -137.5v-333zM440 650l-185 -99l-30 47l170 123z" />
    <glyph glyph-name="Ncommaaccent" unicode="&#x145;" horiz-adv-x="734" 
d="M634 0h-100l-348 570v-570h-86v709h100l348 -572v572h86v-709zM420 -61v-77q0 -66 -68 -85l-16 30q21 7 29.5 17.5t8.5 32.5h-39v82h85z" />
    <glyph glyph-name="ncommaaccent" unicode="&#x146;" horiz-adv-x="585" 
d="M502 0h-85v321q0 121 -111 121q-73 0 -110 -78q-18 -39 -18 -129v-235h-85v506h74l7 -76q19 41 63 65t90 24q85 0 130 -48.5t45 -137.5v-333zM345 -61v-77q0 -66 -68 -85l-16 30q21 7 29.5 17.5t8.5 32.5h-39v82h85z" />
    <glyph glyph-name="Ncaron" unicode="&#x147;" horiz-adv-x="734" 
d="M634 0h-100l-348 570v-570h-86v709h100l348 -572v572h86v-709zM530 867l-128 -113h-57l-125 113l48 51l106 -97l108 97z" />
    <glyph glyph-name="ncaron" unicode="&#x148;" horiz-adv-x="585" 
d="M502 0h-85v321q0 121 -111 121q-73 0 -110 -78q-18 -39 -18 -129v-235h-85v506h74l7 -76q19 41 63 65t90 24q85 0 130 -48.5t45 -137.5v-333zM443 674l-111 -117h-55l-110 117l50 44l88 -94l90 94z" />
    <glyph glyph-name="Omacron" unicode="&#x14c;" horiz-adv-x="670" 
d="M617 354q0 -98 -19 -169t-72 -123q-78 -76 -191 -76t-191 76q-53 52 -72 123t-19 169t19 169t72 123q78 76 191 76t191 -76q53 -52 72 -123t19 -169zM525 354q0 48 -2.5 81t-17 77t-41.5 72q-51 53 -129 53t-129 -53q-27 -28 -41.5 -72t-17 -77t-2.5 -81t2.5 -81t17 -77
t41.5 -72q51 -53 129 -53t129 53q27 28 41.5 72t17 77t2.5 81zM474 774h-278v68h278v-68z" />
    <glyph glyph-name="omacron" unicode="&#x14d;" horiz-adv-x="558" 
d="M504 253q0 -136 -72 -207q-61 -59 -153 -59t-153 59q-72 71 -72 207t72 207q61 59 153 59t153 -59q72 -71 72 -207zM417 253q0 109 -47 157q-36 36 -91 36t-91 -36q-47 -48 -47 -157t47 -157q36 -36 91 -36t91 36q47 48 47 157zM418 588h-278v68h278v-68z" />
    <glyph glyph-name="Ohungarumlaut" unicode="&#x150;" horiz-adv-x="670" 
d="M617 354q0 -98 -19 -169t-72 -123q-78 -76 -191 -76t-191 76q-53 52 -72 123t-19 169t19 169t72 123q78 76 191 76t191 -76q53 -52 72 -123t19 -169zM525 354q0 48 -2.5 81t-17 77t-41.5 72q-51 53 -129 53t-129 -53q-27 -28 -41.5 -72t-17 -77t-2.5 -81t2.5 -81t17 -77
t41.5 -72q51 -53 129 -53t129 53q27 28 41.5 72t17 77t2.5 81zM591 858l-187 -104l-32 47l172 129zM398 858l-187 -104l-32 47l172 129z" />
    <glyph glyph-name="ohungarumlaut" unicode="&#x151;" horiz-adv-x="558" 
d="M504 253q0 -136 -72 -207q-61 -59 -153 -59t-153 59q-72 71 -72 207t72 207q61 59 153 59t153 -59q72 -71 72 -207zM417 253q0 109 -47 157q-36 36 -91 36t-91 -36q-47 -48 -47 -157t47 -157q36 -36 91 -36t91 36q47 48 47 157zM525 657l-187 -104l-32 47l172 129z
M332 657l-187 -104l-32 47l172 129z" />
    <glyph glyph-name="OE" unicode="&#x152;" horiz-adv-x="983" 
d="M932 0h-420v65q-62 -78 -187 -78q-114 0 -189 77q-49 51 -66 121.5t-17 169.5t17 169t66 121q76 78 189 78q123 0 187 -81v67h420v-83h-338v-206h289v-84h-289v-253h338v-83zM507 355q0 171 -54 234q-46 53 -128 53q-69 0 -117 -44q-65 -63 -65 -243q0 -172 56 -236
q45 -52 126 -52q76 0 121 45q37 37 49 97.5t12 145.5z" />
    <glyph glyph-name="oe" unicode="&#x153;" horiz-adv-x="889" 
d="M839 229h-349q0 -65 20 -104q35 -68 117 -68q41 0 75.5 23.5t43.5 67.5h85q-10 -71 -66 -118q-54 -45 -137 -45q-124 0 -179 94q-16 -25 -26 -35q-58 -60 -151 -60q-91 0 -150 61q-68 69 -68 206q0 139 67 207q59 61 151 61q91 0 151 -62q11 -11 24 -32l5 8
q24 40 69.5 63t102.5 23q115 0 175 -92q40 -61 40 -171v-27zM752 296q-2 72 -36 112q-36 41 -93 41q-61 0 -96 -44t-36 -109h261zM407 251q0 114 -47 162q-35 35 -88 35q-48 0 -82 -31q-51 -46 -51 -166q0 -110 45 -159q34 -37 88 -37q62 0 97 45q38 50 38 151z" />
    <glyph glyph-name="Racute" unicode="&#x154;" horiz-adv-x="662" 
d="M617 0h-98l-134 295h-196v-295h-89v709h278q119 0 180 -63q56 -59 56 -144q0 -83 -54 -140q-31 -33 -85 -50zM522 502q0 125 -144 125h-189v-249h189q144 0 144 124zM458 853l-185 -99l-30 47l170 123z" />
    <glyph glyph-name="racute" unicode="&#x155;" horiz-adv-x="384" 
d="M366 423q-20 4 -47 4q-54 0 -96 -40q-46 -44 -46 -162v-225h-84v506h75l7 -89q19 45 60 68.5t91 23.5q20 0 40 -3v-83zM388 650l-185 -99l-30 47l170 123z" />
    <glyph glyph-name="Rcommaaccent" unicode="&#x156;" horiz-adv-x="662" 
d="M617 0h-98l-134 295h-196v-295h-89v709h278q119 0 180 -63q56 -59 56 -144q0 -83 -54 -140q-31 -33 -85 -50zM522 502q0 125 -144 125h-189v-249h189q144 0 144 124zM389 -61v-77q0 -66 -68 -85l-16 30q21 7 29.5 17.5t8.5 32.5h-39v82h85z" />
    <glyph glyph-name="rcommaaccent" unicode="&#x157;" horiz-adv-x="384" 
d="M366 423q-20 4 -47 4q-54 0 -96 -40q-46 -44 -46 -162v-225h-84v506h75l7 -89q19 45 60 68.5t91 23.5q20 0 40 -3v-83zM178 -61v-77q0 -66 -68 -85l-16 30q21 7 29.5 17.5t8.5 32.5h-39v82h85z" />
    <glyph glyph-name="Rcaron" unicode="&#x158;" horiz-adv-x="662" 
d="M617 0h-98l-134 295h-196v-295h-89v709h278q119 0 180 -63q56 -59 56 -144q0 -83 -54 -140q-31 -33 -85 -50zM522 502q0 125 -144 125h-189v-249h189q144 0 144 124zM487 867l-128 -113h-57l-125 113l48 51l106 -97l108 97z" />
    <glyph glyph-name="rcaron" unicode="&#x159;" horiz-adv-x="384" 
d="M366 423q-20 4 -47 4q-54 0 -96 -40q-46 -44 -46 -162v-225h-84v506h75l7 -89q19 45 60 68.5t91 23.5q20 0 40 -3v-83zM370 674l-111 -117h-55l-110 117l50 44l88 -94l90 94z" />
    <glyph glyph-name="Sacute" unicode="&#x15a;" horiz-adv-x="635" 
d="M585 195q0 -79 -60 -137q-72 -71 -201 -71t-203 68q-76 71 -76 170h93q0 -64 50 -112q45 -44 136 -44q88 0 132 41q36 33 36 83q0 44 -29.5 74.5t-89.5 39.5l-112 17q-85 13 -137 60t-52 128t62 140q75 70 186 70q113 0 184 -68q65 -62 68 -152h-93q-3 52 -35 89
q-43 49 -125 49q-83 0 -126 -49q-29 -34 -29 -77q0 -44 30.5 -69t75.5 -31q5 -1 118 -18q90 -13 143.5 -66t53.5 -135zM455 853l-185 -99l-30 47l170 123z" />
    <glyph glyph-name="sacute" unicode="&#x15b;" horiz-adv-x="521" 
d="M468 147q0 -61 -40 -103q-56 -57 -165 -57q-106 0 -164 57q-49 47 -49 116h85q1 -49 41 -79q31 -23 91 -23t93 28q25 20 25 55q0 61 -79 72l-114 15q-58 9 -91 44t-33 92t42 99q54 56 149 56q110 0 161 -64q36 -44 36 -97h-85q-2 39 -29 63q-30 27 -83 27q-35 0 -59 -10
q-51 -21 -51 -68q0 -56 68 -66q9 -1 30 -4t44.5 -6t47.5 -7q56 -9 92.5 -47t36.5 -93zM408 650l-185 -99l-30 47l170 123z" />
    <glyph glyph-name="Scircumflex" unicode="&#x15c;" horiz-adv-x="635" 
d="M585 195q0 -79 -60 -137q-72 -71 -201 -71t-203 68q-76 71 -76 170h93q0 -64 50 -112q45 -44 136 -44q88 0 132 41q36 33 36 83q0 44 -29.5 74.5t-89.5 39.5l-112 17q-85 13 -137 60t-52 128t62 140q75 70 186 70q113 0 184 -68q65 -62 68 -152h-93q-3 52 -35 89
q-43 49 -125 49q-83 0 -126 -49q-29 -34 -29 -77q0 -44 30.5 -69t75.5 -31q5 -1 118 -18q90 -13 143.5 -66t53.5 -135zM344 915l128 -113l-46 -48l-110 98l-108 -98l-46 48l125 113h57z" />
    <glyph glyph-name="scircumflex" unicode="&#x15d;" horiz-adv-x="521" 
d="M468 147q0 -61 -40 -103q-56 -57 -165 -57q-106 0 -164 57q-49 47 -49 116h85q1 -49 41 -79q31 -23 91 -23t93 28q25 20 25 55q0 61 -79 72l-114 15q-58 9 -91 44t-33 92t42 99q54 56 149 56q110 0 161 -64q36 -44 36 -97h-85q-2 39 -29 63q-30 27 -83 27q-35 0 -59 -10
q-51 -21 -51 -68q0 -56 68 -66q9 -1 30 -4t44.5 -6t47.5 -7q56 -9 92.5 -47t36.5 -93zM291 712l111 -117l-48 -44l-90 94l-88 -94l-50 44l110 117h55z" />
    <glyph glyph-name="Scedilla" unicode="&#x15e;" horiz-adv-x="635" 
d="M585 195q0 -79 -60 -137q-72 -71 -201 -71t-203 68q-76 71 -76 170h93q0 -64 50 -112q45 -44 136 -44q88 0 132 41q36 33 36 83q0 44 -29.5 74.5t-89.5 39.5l-112 17q-85 13 -137 60t-52 128t62 140q75 70 186 70q113 0 184 -68q65 -62 68 -152h-93q-3 52 -35 89
q-43 49 -125 49q-83 0 -126 -49q-29 -34 -29 -77q0 -44 30.5 -69t75.5 -31q5 -1 118 -18q90 -13 143.5 -66t53.5 -135zM376 -62l-69 -176l-88 41l79 135h78z" />
    <glyph glyph-name="scedilla" unicode="&#x15f;" horiz-adv-x="521" 
d="M468 147q0 -61 -40 -103q-56 -57 -165 -57q-106 0 -164 57q-49 47 -49 116h85q1 -49 41 -79q31 -23 91 -23t93 28q25 20 25 55q0 61 -79 72l-114 15q-58 9 -91 44t-33 92t42 99q54 56 149 56q110 0 161 -64q36 -44 36 -97h-85q-2 39 -29 63q-30 27 -83 27q-35 0 -59 -10
q-51 -21 -51 -68q0 -56 68 -66q9 -1 30 -4t44.5 -6t47.5 -7q56 -9 92.5 -47t36.5 -93zM319 -62l-69 -176l-88 41l79 135h78z" />
    <glyph glyph-name="Scaron" unicode="&#x160;" horiz-adv-x="635" 
d="M585 195q0 -79 -60 -137q-72 -71 -201 -71t-203 68q-76 71 -76 170h93q0 -64 50 -112q45 -44 136 -44q88 0 132 41q36 33 36 83q0 44 -29.5 74.5t-89.5 39.5l-112 17q-85 13 -137 60t-52 128t62 140q75 70 186 70q113 0 184 -68q65 -62 68 -152h-93q-3 52 -35 89
q-43 49 -125 49q-83 0 -126 -49q-29 -34 -29 -77q0 -44 30.5 -69t75.5 -31q5 -1 118 -18q90 -13 143.5 -66t53.5 -135zM476 867l-128 -113h-57l-125 113l48 51l106 -97l108 97z" />
    <glyph glyph-name="scaron" unicode="&#x161;" horiz-adv-x="521" 
d="M468 147q0 -61 -40 -103q-56 -57 -165 -57q-106 0 -164 57q-49 47 -49 116h85q1 -49 41 -79q31 -23 91 -23t93 28q25 20 25 55q0 61 -79 72l-114 15q-58 9 -91 44t-33 92t42 99q54 56 149 56q110 0 161 -64q36 -44 36 -97h-85q-2 39 -29 63q-30 27 -83 27q-35 0 -59 -10
q-51 -21 -51 -68q0 -56 68 -66q9 -1 30 -4t44.5 -6t47.5 -7q56 -9 92.5 -47t36.5 -93zM401 674l-111 -117h-55l-110 117l50 44l88 -94l90 94z" />
    <glyph glyph-name="Tcommaaccent" unicode="&#x162;" horiz-adv-x="538" 
d="M525 626h-211v-626h-90v626h-211v83h512v-83zM312 -61v-77q0 -66 -68 -85l-16 30q21 7 29.5 17.5t8.5 32.5h-39v82h85z" />
    <glyph glyph-name="tcommaaccent" unicode="&#x163;" horiz-adv-x="385" 
d="M355 7q-54 -14 -101 -14q-75 0 -107 39t-32 98v303h-98v73h98v129l85 20v-149h150v-73h-150v-293q0 -36 16 -52.5t52 -16.5q16 0 38 2.5t36 4.5l13 2v-73zM235 -61v-77q0 -66 -68 -85l-16 30q21 7 29.5 17.5t8.5 32.5h-39v82h85z" />
    <glyph glyph-name="Tcaron" unicode="&#x164;" horiz-adv-x="538" 
d="M525 626h-211v-626h-90v626h-211v83h512v-83zM422 867l-128 -113h-57l-125 113l48 51l106 -97l108 97z" />
    <glyph glyph-name="tcaron" unicode="&#x165;" horiz-adv-x="385" 
d="M355 7q-54 -14 -101 -14q-75 0 -107 39t-32 98v303h-98v73h98v129l85 20v-149h150v-73h-150v-293q0 -36 16 -52.5t52 -16.5q16 0 38 2.5t36 4.5l13 2v-73zM340 752v-85q0 -72 -64 -102l-15 33q22 11 28.5 24t6.5 33v6h-33v91h77z" />
    <glyph glyph-name="Umacron" unicode="&#x16a;" horiz-adv-x="678" 
d="M598 260q0 -131 -69 -202t-190 -71t-190 71t-69 202v449h89v-451q0 -188 170 -188t170 188v451h89v-449zM478 774h-278v68h278v-68z" />
    <glyph glyph-name="umacron" unicode="&#x16b;" horiz-adv-x="582" 
d="M489 0h-74l-7 77q-19 -42 -61 -65.5t-89 -23.5q-85 0 -129 48.5t-44 137.5v332h85v-320q0 -60 25 -90.5t83 -30.5q48 0 84 38q42 43 42 140v263h85v-506zM430 588h-278v68h278v-68z" />
    <glyph glyph-name="Ubreve" unicode="&#x16c;" horiz-adv-x="678" 
d="M598 260q0 -131 -69 -202t-190 -71t-190 71t-69 202v449h89v-451q0 -188 170 -188t170 188v451h89v-449zM503 910q-6 -69 -47.5 -112.5t-116.5 -43.5t-117 43.5t-48 112.5h68q12 -92 97 -92t96 92h68z" />
    <glyph glyph-name="ubreve" unicode="&#x16d;" horiz-adv-x="582" 
d="M489 0h-74l-7 77q-19 -42 -61 -65.5t-89 -23.5q-85 0 -129 48.5t-44 137.5v332h85v-320q0 -60 25 -90.5t83 -30.5q48 0 84 38q42 43 42 140v263h85v-506zM458 710q-6 -69 -47.5 -112.5t-116.5 -43.5t-117 43.5t-48 112.5h68q11 -92 97 -92q84 0 96 92h68z" />
    <glyph glyph-name="Uring" unicode="&#x16e;" horiz-adv-x="678" 
d="M598 260q0 -131 -69 -202t-190 -71t-190 71t-69 202v449h89v-451q0 -188 170 -188t170 188v451h89v-449zM449 809q0 -43 -30 -75t-80 -32t-80 32t-30 75t30 75t80 32t80 -32t30 -75zM393 809q0 23 -15 39.5t-39 16.5t-39.5 -16.5t-15.5 -39.5t15.5 -39t39.5 -16t39 16
t15 39z" />
    <glyph glyph-name="uring" unicode="&#x16f;" horiz-adv-x="582" 
d="M489 0h-74l-7 77q-19 -42 -61 -65.5t-89 -23.5q-85 0 -129 48.5t-44 137.5v332h85v-320q0 -60 25 -90.5t83 -30.5q48 0 84 38q42 43 42 140v263h85v-506zM401 670q0 -43 -30 -75t-80 -32t-80 32t-30 75t30 75t80 32t80 -32t30 -75zM345 670q0 23 -15 39.5t-39 16.5
t-39.5 -16.5t-15.5 -39.5t15.5 -39t39.5 -16t39 16t15 39z" />
    <glyph glyph-name="Uhungarumlaut" unicode="&#x170;" horiz-adv-x="678" 
d="M598 260q0 -131 -69 -202t-190 -71t-190 71t-69 202v449h89v-451q0 -188 170 -188t170 188v451h89v-449zM595 858l-187 -104l-32 47l172 129zM402 858l-187 -104l-32 47l172 129z" />
    <glyph glyph-name="uhungarumlaut" unicode="&#x171;" horiz-adv-x="582" 
d="M489 0h-74l-7 77q-19 -42 -61 -65.5t-89 -23.5q-85 0 -129 48.5t-44 137.5v332h85v-320q0 -60 25 -90.5t83 -30.5q48 0 84 38q42 43 42 140v263h85v-506zM527 657l-187 -104l-32 47l172 129zM334 657l-187 -104l-32 47l172 129z" />
    <glyph glyph-name="Uogonek" unicode="&#x172;" horiz-adv-x="678" 
d="M598 260q0 -121 -60 -192q-74 -92 -74 -152q0 -46 50 -46l30 3v-60q-22 -6 -40 -7h-10q-45 0 -75 25t-30 66q0 68 54 107q-48 -17 -104 -17q-121 0 -190 71t-69 202v449h89v-451q0 -188 170 -188t170 188v451h89v-449z" />
    <glyph glyph-name="uogonek" unicode="&#x173;" horiz-adv-x="582" 
d="M334 -103q0 31 16.5 56.5t29 34.5t19.5 12q2 1 7 2.5t8 3.5l-6 71q-19 -42 -61 -65.5t-89 -23.5q-85 0 -129 48.5t-44 137.5v332h85v-320q0 -60 25 -90.5t83 -30.5q48 0 84 38q42 43 42 140v263h85v-506q-35 -13 -57.5 -35.5t-22.5 -51.5q0 -43 50 -43l30 1v-58
q-22 -6 -40 -7h-10q-45 0 -75 26t-30 65z" />
    <glyph glyph-name="Wcircumflex" unicode="&#x174;" horiz-adv-x="862" 
d="M830 709l-141 -709h-95l-162 571l-164 -571h-94l-142 709h83l113 -578l164 568h80l164 -567l113 577h81zM465 915l128 -113l-46 -48l-110 98l-108 -98l-46 48l125 113h57z" />
    <glyph glyph-name="wcircumflex" unicode="&#x175;" horiz-adv-x="767" 
d="M729 506l-131 -506h-82l-132 387l-135 -387h-81l-130 506h84l97 -382l129 376h73l127 -376l98 382h83zM410 712l111 -117l-48 -44l-90 94l-88 -94l-50 44l110 117h55z" />
    <glyph glyph-name="Ycircumflex" unicode="&#x176;" horiz-adv-x="566" 
d="M566 709l-238 -421v-288h-90v288l-238 421h100l186 -337l185 337h95zM314 915l128 -113l-46 -48l-110 98l-108 -98l-46 48l125 113h57z" />
    <glyph glyph-name="ycircumflex" unicode="&#x177;" horiz-adv-x="498" 
d="M488 506l-228 -610q-19 -53 -51 -80.5t-86 -27.5q-42 0 -77 10v74q27 -8 60 -8q57 0 76 51l32 85l-202 506h96l149 -399l142 399h89zM286 712l111 -117l-48 -44l-90 94l-88 -94l-50 44l110 117h55z" />
    <glyph glyph-name="Ydieresis" unicode="&#x178;" horiz-adv-x="566" 
d="M566 709l-238 -421v-288h-90v288l-238 421h100l186 -337l185 337h95zM419 778h-92v92h92v-92zM243 778h-92v92h92v-92z" />
    <glyph glyph-name="Zacute" unicode="&#x179;" horiz-adv-x="612" 
d="M566 0h-523v89l413 537h-409v83h515v-90l-414 -536h418v-83zM427 853l-185 -99l-30 47l170 123z" />
    <glyph glyph-name="zacute" unicode="&#x17a;" horiz-adv-x="501" 
d="M453 0h-400v75l294 357h-294v74h397v-75l-293 -357h296v-74zM378 650l-185 -99l-30 47l170 123z" />
    <glyph glyph-name="Zdotaccent" unicode="&#x17b;" horiz-adv-x="612" 
d="M566 0h-523v89l413 537h-409v83h515v-90l-414 -536h418v-83zM354 789h-92v92h92v-92z" />
    <glyph glyph-name="zdotaccent" unicode="&#x17c;" horiz-adv-x="501" 
d="M453 0h-400v75l294 357h-294v74h397v-75l-293 -357h296v-74zM303 599h-92v92h92v-92z" />
    <glyph glyph-name="Zcaron" unicode="&#x17d;" horiz-adv-x="612" 
d="M566 0h-523v89l413 537h-409v83h515v-90l-414 -536h418v-83zM460 867l-128 -113h-57l-125 113l48 51l106 -97l108 97z" />
    <glyph glyph-name="zcaron" unicode="&#x17e;" horiz-adv-x="501" 
d="M453 0h-400v75l294 357h-294v74h397v-75l-293 -357h296v-74zM116 670l40 40l98 -103l96 103l40 -40l-112 -118h-50z" />
    <glyph glyph-name="florin" unicode="&#x192;" horiz-adv-x="527" 
d="M479 635q-42 6 -58 6q-67 0 -85 -89l-23 -115h141v-75h-156l-67 -339q-13 -63 -54 -100.5t-94 -37.5q-39 0 -75 8v75q42 -6 58 -6q67 0 85 89l62 311h-102v75h117l28 143q13 63 54 100.5t94 37.5q39 0 75 -8v-75z" />
    <glyph glyph-name="Scommaaccent" unicode="&#x218;" horiz-adv-x="635" 
d="M585 195q0 -79 -60 -137q-72 -71 -201 -71t-203 68q-76 71 -76 170h93q0 -64 50 -112q45 -44 136 -44q88 0 132 41q36 33 36 83q0 44 -29.5 74.5t-89.5 39.5l-112 17q-85 13 -137 60t-52 128t62 140q75 70 186 70q113 0 184 -68q65 -62 68 -152h-93q-3 52 -35 89
q-43 49 -125 49q-83 0 -126 -49q-29 -34 -29 -77q0 -44 30.5 -69t75.5 -31q5 -1 118 -18q90 -13 143.5 -66t53.5 -135zM367 -61v-77q0 -66 -68 -85l-16 30q21 7 29.5 17.5t8.5 32.5h-39v82h85z" />
    <glyph glyph-name="scommaaccent" unicode="&#x219;" horiz-adv-x="521" 
d="M468 147q0 -61 -40 -103q-56 -57 -165 -57q-106 0 -164 57q-49 47 -49 116h85q1 -49 41 -79q31 -23 91 -23t93 28q25 20 25 55q0 61 -79 72l-114 15q-58 9 -91 44t-33 92t42 99q54 56 149 56q110 0 161 -64q36 -44 36 -97h-85q-2 39 -29 63q-30 27 -83 27q-35 0 -59 -10
q-51 -21 -51 -68q0 -56 68 -66q9 -1 30 -4t44.5 -6t47.5 -7q56 -9 92.5 -47t36.5 -93zM303 -61v-77q0 -66 -68 -85l-16 30q21 7 29.5 17.5t8.5 32.5h-39v82h85z" />
    <glyph glyph-name="circumflex" unicode="&#x2c6;" horiz-adv-x="355" 
d="M204 712l111 -117l-48 -44l-90 94l-88 -94l-50 44l110 117h55z" />
    <glyph glyph-name="caron" unicode="&#x2c7;" horiz-adv-x="368" 
d="M325 674l-111 -117h-55l-110 117l50 44l88 -94l90 94z" />
    <glyph glyph-name="breve" unicode="&#x2d8;" horiz-adv-x="352" 
d="M338 710q-6 -69 -47.5 -112.5t-116.5 -43.5t-117 43.5t-48 112.5h68q11 -92 97 -92q84 0 96 92h68z" />
    <glyph glyph-name="dotaccent" unicode="&#x2d9;" horiz-adv-x="275" 
d="M183 599h-92v92h92v-92z" />
    <glyph glyph-name="ring" unicode="&#x2da;" horiz-adv-x="220" 
d="M220 670q0 -43 -30 -75t-80 -32t-80 32t-30 75t30 75t80 32t80 -32t30 -75zM164 670q0 23 -15 39.5t-39 16.5t-39.5 -16.5t-15.5 -39.5t15.5 -39t39.5 -16t39 16t15 39z" />
    <glyph glyph-name="ogonek" unicode="&#x2db;" horiz-adv-x="174" 
d="M44 -103q0 31 16.5 56.5t29 34.5t19.5 12q45 18 49 34l41 -34q-35 -13 -57.5 -35.5t-22.5 -51.5q0 -43 50 -43l30 1v-58q-22 -6 -40 -7h-10q-45 0 -75 26t-30 65z" />
    <glyph glyph-name="tilde" unicode="&#x2dc;" horiz-adv-x="360" 
d="M346 647q-42 -54 -101 -54q-34 0 -72 21t-59 21q-34 0 -62 -28l-39 42q48 54 102 54q29 0 69 -22t62 -22q37 0 63 30z" />
    <glyph glyph-name="hungarumlaut" unicode="&#x2dd;" horiz-adv-x="459" 
d="M450 657l-187 -104l-32 47l172 129zM257 657l-187 -104l-32 47l172 129z" />
    <glyph glyph-name="Delta" unicode="&#x394;" horiz-adv-x="588" 
d="M539 364q0 -41 -26.5 -67.5t-66.5 -26.5h-72q17 -23 17 -54q0 -40 -26.5 -66.5t-66.5 -26.5h-249v248q0 41 26.5 67.5t66.5 26.5q30 0 55 -17v71q0 41 26.5 67.5t66.5 26.5t66.5 -26.5t26.5 -67.5v-62h63q40 0 66.5 -26.5t26.5 -66.5zM522 364q0 34 -21 55t-55 21h-79v79
q0 34 -21.5 55.5t-55.5 21.5t-55 -21.5t-21 -55.5v-232h232q34 0 55 21.5t21 55.5z" />
    <glyph glyph-name="pi" unicode="&#x3c0;" horiz-adv-x="640" 
d="M570 4q-28 -11 -67 -11q-56 0 -82.5 36t-26.5 89v320h-167v-439h-84v439h-78v68h491v-68h-77v-310q0 -62 46 -62q33 0 45 5v-67z" />
    <glyph glyph-name="Wgrave" unicode="&#x1e80;" horiz-adv-x="862" 
d="M830 709l-141 -709h-95l-162 571l-164 -571h-94l-142 709h83l113 -578l164 568h80l164 -567l113 577h81zM548 807l-31 -47l-185 99l45 71z" />
    <glyph glyph-name="wgrave" unicode="&#x1e81;" horiz-adv-x="767" 
d="M729 506l-131 -506h-82l-132 387l-135 -387h-81l-130 506h84l97 -382l129 376h73l127 -376l98 382h83zM501 598l-31 -47l-185 99l45 71z" />
    <glyph glyph-name="endash" unicode="&#x2013;" horiz-adv-x="655" 
d="M585 262h-515v79h515v-79z" />
    <glyph glyph-name="emdash" unicode="&#x2014;" horiz-adv-x="1125" 
d="M1055 262h-985v79h985v-79z" />
    <glyph glyph-name="quoteleft" unicode="&#x2018;" horiz-adv-x="274" 
d="M199 672q-38 -17 -51 -41t-13 -69h62v-117h-122v117q0 58 22.5 96.5t75.5 60.5z" />
    <glyph glyph-name="quoteright" unicode="&#x2019;" horiz-adv-x="264" 
d="M194 588q0 -58 -22.5 -96.5t-75.5 -60.5l-26 47q38 17 51 41t13 69h-62v117h122v-117z" />
    <glyph glyph-name="quotesinglbase" unicode="&#x201a;" horiz-adv-x="279" 
d="M204 -2q0 -58 -22.5 -96.5t-75.5 -60.5l-26 47q38 17 51 41t13 69h-62v117h122v-117z" />
    <glyph glyph-name="quotedblleft" unicode="&#x201c;" horiz-adv-x="472" 
d="M402 672q-38 -17 -51 -41t-13 -69h62v-117h-122v117q0 58 22.5 96.5t75.5 60.5zM204 672q-38 -17 -51 -41t-13 -69h62v-117h-122v117q0 58 22.5 96.5t75.5 60.5z" />
    <glyph glyph-name="quotedblright" unicode="&#x201d;" horiz-adv-x="462" 
d="M397 586q0 -58 -22.5 -96.5t-75.5 -60.5l-26 47q38 17 51 41t13 69h-62v117h122v-117zM199 586q0 -58 -22.5 -96.5t-75.5 -60.5l-26 47q38 17 51 41t13 69h-62v117h122v-117z" />
    <glyph glyph-name="quotedblbase" unicode="&#x201e;" horiz-adv-x="492" 
d="M407 -1q0 -58 -22.5 -96.5t-75.5 -60.5l-26 47q38 17 51 41t13 69h-62v117h122v-117zM209 -1q0 -58 -22.5 -96.5t-75.5 -60.5l-26 47q38 17 51 41t13 69h-62v117h122v-117z" />
    <glyph glyph-name="dagger" unicode="&#x2020;" horiz-adv-x="566" 
d="M511 433h-186v-558h-83v558h-187v73h187v203h83v-203h186v-73z" />
    <glyph glyph-name="daggerdbl" unicode="&#x2021;" horiz-adv-x="566" 
d="M511 78h-187v-203h-82v203h-187v73h187v282h-187v73h187v203h82v-203h187v-73h-187v-282h187v-73z" />
    <glyph glyph-name="bullet" unicode="&#x2022;" horiz-adv-x="435" 
d="M345 292q0 -54 -37 -92.5t-90 -38.5t-90.5 38.5t-37.5 92.5t37.5 92.5t90.5 38.5t90 -38.5t37 -92.5z" />
    <glyph glyph-name="ellipsis" unicode="&#x2026;" horiz-adv-x="805" 
d="M728 0h-115v115h115v-115zM459 0h-114v115h114v-115zM191 0h-114v115h114v-115z" />
    <glyph glyph-name="perthousand" unicode="&#x2030;" horiz-adv-x="1175" 
d="M1125 168q0 -73 -29 -115q-45 -66 -126 -66q-80 0 -125 66q-29 42 -29 115q0 74 29 116q45 67 125 67q81 0 126 -67q29 -42 29 -116zM765 168q0 -73 -29 -115q-45 -66 -125 -66q-81 0 -126 66q-29 42 -29 115q0 74 29 116q45 67 126 67q80 0 125 -67q29 -42 29 -116z
M705 685l-516 -706l-54 41l515 704zM370 540q0 -71 -30 -115q-45 -66 -125 -66q-81 0 -126 66q-29 42 -29 115q0 74 29 116q45 66 126 66q80 0 125 -66q30 -44 30 -116zM1052 168q0 68 -27 96q-21 23 -55 23t-55 -23q-27 -28 -27 -96q0 -67 27 -95q21 -23 55 -23t55 23
q27 28 27 95zM692 168q0 68 -27 96q-21 23 -54 23q-34 0 -55 -23q-28 -29 -28 -96q0 -66 28 -95q21 -23 55 -23q33 0 54 23q27 28 27 95zM297 540q0 67 -28 96q-21 23 -54 23q-34 0 -55 -23q-28 -29 -28 -96q0 -66 28 -95q21 -23 55 -23q33 0 54 23q28 29 28 95z" />
    <glyph glyph-name="guilsinglleft" unicode="&#x2039;" horiz-adv-x="318" 
d="M263 108l-54 -40l-164 230l164 230l53 -38l-111 -191z" />
    <glyph glyph-name="guilsinglright" unicode="&#x203a;" horiz-adv-x="318" 
d="M273 298l-164 -230l-54 40l112 191l-111 191l53 38z" />
    <glyph glyph-name="fraction" unicode="&#x2044;" horiz-adv-x="588" 
d="M579 685l-516 -706l-54 41l515 704z" />
    <glyph glyph-name="Euro" unicode="&#x20ac;" horiz-adv-x="586" 
d="M571 45q-76 -58 -182 -58q-117 0 -196 81q-69 70 -84 179h-79v61h74q-1 13 -1 40q0 26 1 39h-74v61h79q15 110 84 180q79 81 196 81q106 0 182 -58l-33 -72q-64 50 -149 50q-84 0 -139 -61q-40 -44 -52 -120h280l-27 -61h-258q-1 -13 -1 -40q0 -26 1 -39h230l-27 -61
h-198q10 -73 52 -119q55 -61 139 -61q85 0 149 50z" />
    <glyph glyph-name="trademark" unicode="&#x2122;" horiz-adv-x="837" 
d="M762 318h-68v320l-106 -310h-49l-106 309v-319h-68v391h107l93 -282l93 282h104v-391zM310 647h-111v-329h-68v329h-111v62h290v-62z" />
    <glyph glyph-name="Omega" unicode="&#x2126;" horiz-adv-x="858" 
d="M790 355q0 -155 -103.5 -261.5t-257.5 -106.5t-257.5 106t-103.5 261t103.5 261.5t257.5 106.5t257.5 -106t103.5 -261zM723 355q0 133 -81.5 218t-212.5 85t-212.5 -85.5t-81.5 -218.5t81.5 -218t212.5 -85t212.5 85.5t81.5 218.5zM593 421q0 -57 -39.5 -91t-96.5 -34
h-74v-135h-67v383h141q57 0 96.5 -33.5t39.5 -89.5zM523 421q0 28 -19 44.5t-47 16.5h-75v-124h75q31 0 48.5 16t17.5 47z" />
    <glyph glyph-name="arrowleft" unicode="&#x2190;" horiz-adv-x="857" 
d="M792 269h-604l235 -232l-48 -50l-320 318l320 318l48 -50l-235 -232h604v-72z" />
    <glyph glyph-name="arrowright" unicode="&#x2192;" horiz-adv-x="857" 
d="M802 305l-319 -318l-48 50l234 232h-604v72h604l-234 232l48 50z" />
    <glyph glyph-name="uni2196" unicode="&#x2196;" horiz-adv-x="663" 
d="M613 215l-51 -51l-427 427v-331h-70v449h451v-67h-330z" />
    <glyph glyph-name="uni2197" unicode="&#x2197;" horiz-adv-x="663" 
d="M598 260h-70v331l-427 -427l-51 51l427 427h-331v67h452v-449z" />
    <glyph glyph-name="partialdiff" unicode="&#x2202;" 
d="M501 0h-382v78h148v520l-165 -121v95l170 123h81v-617h148v-78z" />
    <glyph glyph-name="product" unicode="&#x220f;" horiz-adv-x="812" 
d="M747 867q0 -8 -6 -14.5t-14 -6.5t-14.5 6.5t-6.5 14.5t6.5 14t14.5 6t14 -6t6 -14zM746 615q0 -9 -6.5 -15t-15.5 -6q-19 0 -19 21q0 8 6.5 14.5t14.5 6.5t14 -6.5t6 -14.5zM492 867q0 -8 -6.5 -14.5t-14.5 -6.5t-14.5 6.5t-6.5 14.5t6.5 14t14.5 6t14.5 -6t6.5 -14z
M620 737q0 -8 -6 -14t-14 -6t-14.5 6t-6.5 14t6.5 14.5t14.5 6.5t14 -6.5t6 -14.5zM744 365q0 -8 -6.5 -14.5t-14.5 -6.5t-14.5 6.5t-6.5 14.5t6.5 14t14.5 6t14.5 -6t6.5 -14zM491 615q0 -8 -6.5 -14.5t-14.5 -6.5t-14.5 6.5t-6.5 14.5t6.5 14.5t14.5 6.5t14.5 -6.5
t6.5 -14.5zM619 486q0 -8 -6.5 -14.5t-14.5 -6.5t-14 6.5t-6 14.5t6 14.5t14 6.5t14.5 -6.5t6.5 -14.5zM237 867q0 -8 -6.5 -14.5t-14.5 -6.5t-14 6.5t-6 14.5t6 14t14 6t14.5 -6t6.5 -14zM365 737q0 -8 -6.5 -14t-14.5 -6t-14.5 6t-6.5 14t6.5 14.5t14.5 6.5t14.5 -6.5
t6.5 -14.5zM745 113q0 -8 -6.5 -14.5t-14.5 -6.5t-14.5 6.5t-6.5 14.5t6.5 14.5t14.5 6.5t14.5 -6.5t6.5 -14.5zM488 365q0 -8 -6.5 -14.5t-14.5 -6.5t-14.5 6.5t-6.5 14.5t6.5 14t14.5 6t14.5 -6t6.5 -14zM616 236q0 -8 -6 -14.5t-14 -6.5t-14.5 6.5t-6.5 14.5t6.5 14
t14.5 6t14 -6t6 -14zM236 615q0 -8 -6.5 -14.5t-14.5 -6.5t-14.5 6.5t-6.5 14.5t6.5 14.5t14.5 6.5t14.5 -6.5t6.5 -14.5zM363 486q0 -8 -6 -14.5t-14 -6.5t-14.5 6.5t-6.5 14.5t6.5 14.5t14.5 6.5t14 -6.5t6 -14.5zM110 737q0 -8 -6.5 -14t-14.5 -6t-14.5 6t-6.5 14
t6.5 14.5t14.5 6.5t14.5 -6.5t6.5 -14.5zM745 -139q0 -8 -6.5 -14.5t-14.5 -6.5t-14.5 6.5t-6.5 14.5t6.5 14.5t14.5 6.5t14.5 -6.5t6.5 -14.5zM489 113q0 -8 -6.5 -14.5t-14.5 -6.5t-14.5 6.5t-6.5 14.5t6.5 14.5t14.5 6.5t14.5 -6.5t6.5 -14.5zM617 -16q0 -8 -6 -14.5
t-14 -6.5t-14.5 6.5t-6.5 14.5t6.5 14.5t14.5 6.5t14 -6.5t6 -14.5zM233 365q0 -8 -6.5 -14.5t-14.5 -6.5t-14 6.5t-6 14.5t6 14t14 6t14.5 -6t6.5 -14zM361 236q0 -8 -6.5 -14.5t-14.5 -6.5t-14.5 6.5t-6.5 14.5t6.5 14t14.5 6t14.5 -6t6.5 -14zM109 486q0 -8 -6.5 -14.5
t-14.5 -6.5t-14.5 6.5t-6.5 14.5t6.5 14.5t14.5 6.5t14.5 -6.5t6.5 -14.5zM489 -139q0 -8 -6.5 -14.5t-14.5 -6.5t-14.5 6.5t-6.5 14.5t6.5 14.5t14.5 6.5t14.5 -6.5t6.5 -14.5zM617 -268q0 -8 -6 -14.5t-14 -6.5t-14.5 6.5t-6.5 14.5t6.5 14t14.5 6t14 -6t6 -14zM234 113
q0 -8 -6 -14.5t-14 -6.5t-14.5 6.5t-6.5 14.5t6.5 14.5t14.5 6.5t14 -6.5t6 -14.5zM362 -16q0 -8 -6.5 -14.5t-14.5 -6.5t-14.5 6.5t-6.5 14.5t6.5 14.5t14.5 6.5t14.5 -6.5t6.5 -14.5zM106 236q0 -8 -6.5 -14.5t-14.5 -6.5t-14 6.5t-6 14.5t6 14t14 6t14.5 -6t6.5 -14z
M234 -139q0 -8 -6.5 -14.5t-14.5 -6.5t-14 6.5t-6 14.5t6 14.5t14 6.5t14.5 -6.5t6.5 -14.5zM362 -268q0 -8 -6.5 -14.5t-14.5 -6.5t-14.5 6.5t-6.5 14.5t6.5 14t14.5 6t14.5 -6t6.5 -14zM107 -16q0 -8 -6.5 -14.5t-14.5 -6.5t-14 6.5t-6 14.5t6 14.5t14 6.5t14.5 -6.5
t6.5 -14.5zM107 -268q0 -8 -6.5 -14.5t-14.5 -6.5t-14.5 6.5t-6.5 14.5t6.5 14t14.5 6t14.5 -6t6.5 -14z" />
    <glyph glyph-name="summation" unicode="&#x2211;" horiz-adv-x="928" 
d="M852 -73h-776v221h47v-175h683v175h46v-221z" />
    <glyph glyph-name="minus" unicode="&#x2212;" horiz-adv-x="645" 
d="M585 262h-515v79h515v-79z" />
    <glyph glyph-name="radical" unicode="&#x221a;" horiz-adv-x="690" 
d="M690 766h-110l-259 -774h-77l-179 512h91l127 -385l230 713h177v-66z" />
    <glyph glyph-name="infinity" unicode="&#x221e;" horiz-adv-x="721" 
d="M653 328h-111v-252h110v-76h-331q-108 0 -169 59q-57 55 -57 141q0 53 33 98t84 66q-46 20 -75.5 61.5t-29.5 92.5q0 86 57 138q59 54 154 54q50 0 86 -9v-77q-32 7 -80 7q-57 0 -91 -31q-34 -32 -34 -80q0 -55 33.5 -86t92.5 -31h132v115h85v-115h111v-75zM457 76v252
h-126q-63 0 -105 -37t-42 -94q0 -47 28 -78q39 -43 111 -43h134z" />
    <glyph glyph-name="integral" unicode="&#x222b;" horiz-adv-x="588" 
d="M539 364q0 -41 -26.5 -67.5t-66.5 -26.5h-72q17 -23 17 -54q0 -40 -26.5 -66.5t-66.5 -26.5h-249v248q0 41 26.5 67.5t66.5 26.5q30 0 55 -17v71q0 41 26.5 67.5t66.5 26.5t66.5 -26.5t26.5 -67.5v-62h63q40 0 66.5 -26.5t26.5 -66.5zM522 364q0 34 -21 55t-55 21h-79v79
q0 34 -21.5 55.5t-55.5 21.5t-55 -21.5t-21 -55.5v-232h232q34 0 55 21.5t21 55.5z" />
    <glyph glyph-name="approxequal" unicode="&#x2248;" horiz-adv-x="655" 
d="M580 374q-47 -46 -80 -62t-73 -16q-39 0 -115 34q-55 24 -85 24q-25 0 -46.5 -9t-52.5 -39l-53 55q47 46 80 62t73 16q35 0 82 -18q9 -3 36 -14.5t42 -16.5q18 -7 39 -7q25 0 46.5 8.5t52.5 38.5zM580 184q-47 -46 -80 -62t-73 -16q-42 0 -115 33q-57 25 -85 25
q-25 0 -46.5 -9t-52.5 -39l-53 54q47 46 80 62t73 16q38 0 82 -17q9 -3 36 -14.5t42 -16.5q21 -8 39 -8q25 0 46.5 8.5t52.5 38.5z" />
    <glyph glyph-name="notequal" unicode="&#x2260;" horiz-adv-x="692" 
d="M587 134h-319l-83 -118l-50 35l58 83h-88v77h142l93 133h-235v77h289l79 113l50 -35l-55 -78h119v-77h-172l-94 -133h266v-77z" />
    <glyph glyph-name="lessequal" unicode="&#x2264;" horiz-adv-x="588" 
d="M539 364q0 -41 -26.5 -67.5t-66.5 -26.5h-72q17 -23 17 -54q0 -40 -26.5 -66.5t-66.5 -26.5h-249v248q0 41 26.5 67.5t66.5 26.5q30 0 55 -17v71q0 41 26.5 67.5t66.5 26.5t66.5 -26.5t26.5 -67.5v-62h63q40 0 66.5 -26.5t26.5 -66.5zM522 364q0 34 -21 55t-55 21h-79v79
q0 34 -21.5 55.5t-55.5 21.5t-55 -21.5t-21 -55.5v-232h232q34 0 55 21.5t21 55.5z" />
    <glyph glyph-name="greaterequal" unicode="&#x2265;" horiz-adv-x="588" 
d="M539 364q0 -41 -26.5 -67.5t-66.5 -26.5h-72q17 -23 17 -54q0 -40 -26.5 -66.5t-66.5 -26.5h-249v248q0 41 26.5 67.5t66.5 26.5q30 0 55 -17v71q0 41 26.5 67.5t66.5 26.5t66.5 -26.5t26.5 -67.5v-62h63q40 0 66.5 -26.5t26.5 -66.5zM522 364q0 34 -21 55t-55 21h-79v79
q0 34 -21.5 55.5t-55.5 21.5t-55 -21.5t-21 -55.5v-232h232q34 0 55 21.5t21 55.5z" />
    <glyph glyph-name="lozenge" unicode="&#x25ca;" 
d="M512 348q0 -112 -16.5 -182t-65.5 -120q-59 -59 -150 -59t-150 59q-49 50 -65.5 120t-16.5 182t16.5 182.5t65.5 120.5q58 58 150 58t150 -58q49 -50 65.5 -120.5t16.5 -182.5zM400 550q-12 28 -34 49q-34 32 -86 32t-86 -32q-21 -20 -33.5 -47t-17 -67.5t-5.5 -63
t-1 -73.5q0 -90 3 -118zM423 348q0 75 -3 111l-257 -319q13 -27 31 -43q34 -32 86 -32t86 32q21 20 33.5 47t17 67.5t5.5 63t1 73.5z" />
    <glyph glyph-name="commaaccent" unicode="&#xf6c3;" horiz-adv-x="230" 
d="M158 -61v-77q0 -66 -68 -85l-16 30q21 7 29.5 17.5t8.5 32.5h-39v82h85z" />
    <glyph glyph-name="apple" unicode="&#xf8ff;" horiz-adv-x="588" 
d="M539 364q0 -41 -26.5 -67.5t-66.5 -26.5h-72q17 -23 17 -54q0 -40 -26.5 -66.5t-66.5 -26.5h-249v248q0 41 26.5 67.5t66.5 26.5q30 0 55 -17v71q0 41 26.5 67.5t66.5 26.5t66.5 -26.5t26.5 -67.5v-62h63q40 0 66.5 -26.5t26.5 -66.5zM522 364q0 34 -21 55t-55 21h-79v79
q0 34 -21.5 55.5t-55.5 21.5t-55 -21.5t-21 -55.5v-232h232q34 0 55 21.5t21 55.5z" />
    <glyph glyph-name="fi" unicode="&#xfb01;" horiz-adv-x="638" 
d="M361 652q-72 8 -84 8q-33 0 -52.5 -19t-19.5 -50v-85h146v-72h-146v-434h-85v434h-92v72h92v90q0 58 41 97t106 39q44 0 94 -9v-71zM551 622h-99v100h99v-100zM545 0h-87v506h87v-506z" />
    <glyph glyph-name="fl" unicode="&#xfb02;" horiz-adv-x="662" 
d="M361 652q-72 8 -84 8q-33 0 -52.5 -19t-19.5 -50v-85h146v-72h-146v-434h-85v434h-92v72h92v90q0 58 41 97t106 39q44 0 94 -9v-71zM627 0q-19 -6 -60 -6q-106 0 -106 124v604h85v-599q0 -27 10.5 -39.5t35.5 -12.5l35 1v-72z" />
    <glyph glyph-name="grave.cap" horiz-adv-x="240" 
d="M441 807l-31 -47l-185 99l45 71z" />
    <glyph glyph-name="acute.cap" horiz-adv-x="230" 
d="M223 853l-185 -99l-30 47l170 123z" />
    <glyph glyph-name="circumflex.cap" horiz-adv-x="355" 
d="M203 915l128 -113l-46 -48l-110 98l-108 -98l-46 48l125 113h57z" />
    <glyph glyph-name="caron.cap" horiz-adv-x="230" 
d="M272 867l-128 -113h-57l-125 113l48 51l106 -97l108 97z" />
    <glyph glyph-name="macron.cap" horiz-adv-x="230" 
d="M254 774h-278v68h278v-68z" />
    <glyph glyph-name="breve.cap" horiz-adv-x="230" 
d="M280 910q-6 -69 -47.5 -112.5t-116.5 -43.5t-117 43.5t-48 112.5h68q11 -92 97 -92q84 0 96 92h68z" />
    <glyph glyph-name="ring.cap" horiz-adv-x="230" 
d="M225 809q0 -43 -30 -75t-80 -32t-80 32t-30 75t30 75t80 32t80 -32t30 -75zM169 809q0 23 -15 39.5t-39 16.5t-39.5 -16.5t-15.5 -39.5t15.5 -39t39.5 -16t39 16t15 39z" />
    <glyph glyph-name="hungarumlaut.cap" horiz-adv-x="230" 
d="M331 858l-187 -104l-32 47l172 129zM138 858l-187 -104l-32 47l172 129z" />
    <glyph glyph-name="dotaccent.cap" horiz-adv-x="230" 
d="M161 789h-92v92h92v-92z" />
    <glyph glyph-name="commaaccent.alt" horiz-adv-x="230" 
d="M73 573v77q0 66 68 85l16 -30q-21 -7 -29.5 -17.5t-8.5 -32.5h39v-82h-85z" />
    <glyph glyph-name="caron.alt" horiz-adv-x="230" 
d="M132 722v-85q0 -72 -64 -102l-15 33q22 11 28.5 24t6.5 33v6h-33v91h77z" />
    </font>
</defs>
</svg>
